\m/ 80's metal \m/

Информационно-аналитический форум "80 см пыли" (In Search We Trust) "У нас никто никуда не спешит"
Me For You - http://me-4u.com
It is currently 07 Dec 2019

All times are UTC + 3 hours

Spoiler
Chat - temporary registration for foreign users (please leave your application here)







Post new topic Reply to topic  [ 17 posts ] 
Author Message
 
PostPosted: 27 Sep 2009 
Просто волшебник
User avatar
Joined: 01 Mar 2008
Posts: 1244
Name: Андрей
Final Cry - Neptune's Relief (2006)

Image

Tracklist

1. Neptune's Relief
2. Through Halls of Coral
3. Riddle of the Sands
4. A Faerie Forlorn
5. On Glacial Trails
6. The Scarlet Sleep
7. Weave the Eclipse
8. Plunging to Medadeath (Hallows Eve Cover)

http://www.metal-archives.com/release.php?id=156323


Top
 Profile  
 
 
PostPosted: 15 Jan 2011 
хард н хэвщик (support team)
User avatar
Joined: 02 Jun 2008
Posts: 16881
Lоcаtion: Н.Новгород
Age: 32
Name: Артем
http://moole.ru/blog/strutter/news/2644 ... -2006.html
мне ссылочки не видны :oops:


Top
 Profile  
 
 
PostPosted: 26 Jan 2011 
Работнечег
User avatar
Joined: 28 Aug 2007
Posts: 6086
Lоcаtion: г. Москва
Age: 30
Name: Дима
Жаль Андрюха пропал совсем :( Впринципе если кому надо могу перезалить, обращайтесь, если что.


Top
 Profile E-mail  
 
 
PostPosted: 27 Jan 2011 
А может смените мне статус?..
Joined: 23 Feb 2008
Posts: 723
Lоcаtion: ленинградская обл
Age: 59
Name: олег
church wrote:
Жаль Андрюха пропал совсем :( Впринципе если кому надо могу перезалить, обращайтесь, если что.

не откажусь


Top
 Profile  
 
 
PostPosted: 27 Jan 2011 
Хиппей (support team)
User avatar
Joined: 30 Jul 2007
Posts: 116001
Lоcаtion: Киев (Kyiv, UA)
Age: 46
Name: Andrey
Я не проспал, просто не дошёл еще до топика этого =)
Спасибо Артёму за поиск, и Игорю за лося :thanx:

Перезаливаю...

_________________


Top
 Profile E-mail  
 
 
PostPosted: 27 Jan 2011 
Хиппей (support team)
User avatar
Joined: 30 Jul 2007
Posts: 116001
Lоcаtion: Киев (Kyiv, UA)
Age: 46
Name: Andrey
Final Cry - 2006 - Neptune's Relief [ape]

MultiUp l Narod

Format: ape+cue+log (сканов нет)

log
Отчёт EAC об извлечении, выполненном 31. декабря 2010, 13:23 для диска:
Final Cry / Neptune's Relief

Дисковод: ASUS DRW-2014S1 Adapter: 0 ID: 0
Режим чтения: Достоверный (C2: нет, Точный поток: да, Отключение кэша: да)
Коррекция смещения при чтении: 6
Способность читать области Lead-in и Lead-out : Нет

Выходной формат: Внутренние WAV-операции
44.100 Гц; 16 бит; стерео

Другие параметры:
Заполнение пропущенных сэмплов тишиной : Да
Удаление блоков с тишиной в начале и конце : Нет
Встроенный Win32-интерфейс для Win NT/2000


Характеристики диапазона извлечения и сообщения об ошибках
Выбранный диапазон
Имя файла C:\Music MP3\Final Cry - Neptune's Relief.wav

Пиковый уровень 100.0 %
Качество диапазона 100.0 %
CRC 9E83DA62
Копирование... OK

Ошибок не произошло

Конец отчёта


cue
REM GENRE Metal
REM DATE 2006
REM DISCID 7008BC09
REM COMMENT "ExactAudioCopy v0.95b4"
PERFORMER "Final Cry"
TITLE "Neptune's Relief"
FILE "Final Cry - Neptune's Relief.wav" WAVE
TRACK 01 AUDIO
TITLE "Neptune's Relief"
PERFORMER "Final Cry"
FLAGS DCP
INDEX 01 00:00:00
TRACK 02 AUDIO
TITLE "Through Halls Of Coral"
PERFORMER "Final Cry"
FLAGS DCP
INDEX 01 04:44:09
TRACK 03 AUDIO
TITLE "Riddle Of The Sands"
PERFORMER "Final Cry"
FLAGS DCP
INDEX 01 09:55:48
TRACK 04 AUDIO
TITLE "A Faerie Forlorn"
PERFORMER "Final Cry"
FLAGS DCP
INDEX 01 13:22:50
TRACK 05 AUDIO
TITLE "On Glacial Trails"
PERFORMER "Final Cry"
FLAGS DCP
INDEX 01 17:52:36
TRACK 06 AUDIO
TITLE "The Scarlet Sleep"
PERFORMER "Final Cry"
FLAGS DCP
INDEX 01 21:55:67
TRACK 07 AUDIO
TITLE "Weave The Eclipse"
PERFORMER "Final Cry"
FLAGS DCP
INDEX 01 25:26:05
TRACK 08 AUDIO
TITLE "Plunging To Megadeath"
PERFORMER "Final Cry"
FLAGS DCP
INDEX 01 30:39:20
TRACK 09 AUDIO
TITLE "Outro"
PERFORMER "Final Cry"
INDEX 01 35:38:41




Всё спасибо Игорю (strutter) :thanx: Ссылка на оригинальный пост чуть выше.

_________________


Top
 Profile E-mail  
 
 
PostPosted: 27 Jan 2011 
Работнечег
User avatar
Joined: 28 Aug 2007
Posts: 6086
Lоcаtion: г. Москва
Age: 30
Name: Дима
Scatterbrain wrote:
Я не проспал, просто не дошёл еще до топика этого =)

я не про тебя, а про rolf'a :crazy:


Top
 Profile E-mail  
 
 
PostPosted: 27 Jan 2011 
Хиппей (support team)
User avatar
Joined: 30 Jul 2007
Posts: 116001
Lоcаtion: Киев (Kyiv, UA)
Age: 46
Name: Andrey
Ггг, ой... :crazy: Только щас заметил, что ты сказал "пропал совсем", а я прочел как "проспал совсем" :fingal:

_________________


Top
 Profile E-mail  
 
 
PostPosted: 28 Jan 2011 
А может смените мне статус?..
Joined: 23 Feb 2008
Posts: 723
Lоcаtion: ленинградская обл
Age: 59
Name: олег
а в мр3 можно ?


Top
 Profile  
 
 
PostPosted: 28 Jan 2011 
Хиппей (support team)
User avatar
Joined: 30 Jul 2007
Posts: 116001
Lоcаtion: Киев (Kyiv, UA)
Age: 46
Name: Andrey
Final Cry - 2006 - Neptune's Relief

Оборжака и отвращака дикая :crazy:

Вы когда-нибудь слышали MDM с уставшим трэшевым вокалом (в духе Йеремии из Танкарда), который исполняет скоростной, но примитивный пауэр?
Так вот это оно самое. Не, ну обычный мелодик дэз воспринимался мной бы еще кое-как через пень-колено, а тута... :beee:
И павер с харш-вокалом тож уже как-то более менее слушать могу, а вот это... Экхм, не знаю, шо и делать. Просто сижу, слушаю третий раз и ржу :haha:
По ходу альбом нужно срочно удалить, оставив лишь классическую трэшево-хардкоровую вещь-кавер "Plunging To Megadeath" :true:
Все ж альбом оставлю, зачислив его в разряд - неудачные приколы.

3/10

зы. Строго рекомендуется к прослушиванию Анатолию Приватиру :dance:

_________________


Top
 Profile E-mail  
 
 
PostPosted: 28 Jan 2011 
Хиппей (support team)
User avatar
Joined: 30 Jul 2007
Posts: 116001
Lоcаtion: Киев (Kyiv, UA)
Age: 46
Name: Andrey
sirriys wrote:
а в мр3 можно ?

Щас попробую...

_________________


Top
 Profile E-mail  
 
 
PostPosted: 28 Jan 2011 
Хиппей (support team)
User avatar
Joined: 30 Jul 2007
Posts: 116001
Lоcаtion: Киев (Kyiv, UA)
Age: 46
Name: Andrey
Final Cry - 2006 - Neptune's Relief [320]

MultiUp l Narod

_________________


Top
 Profile E-mail  
 
 
PostPosted: 29 Jan 2011 
А может смените мне статус?..
Joined: 23 Feb 2008
Posts: 723
Lоcаtion: ленинградская обл
Age: 59
Name: олег
:thanx: :true: спасибо


Top
 Profile  
 
 
PostPosted: 29 Jan 2011 
Power Metal Maniac
User avatar
Joined: 09 Aug 2008
Posts: 6987
Lоcаtion: Москва
Age: 41
Name: Егор
:thanx: раз такое дело, то обязательно послушаю

_________________
Long Live Metal!


Top
 Profile  
 
 
PostPosted: 29 Jan 2011 
Труъ
User avatar
Joined: 12 Jun 2010
Posts: 189
Age: 54
Name: George
:thanx:


Top
 Profile E-mail  
 
 
PostPosted: 17 Feb 2011 
Gretzky must die
User avatar
Joined: 16 Sep 2010
Posts: 265
Lоcаtion: Московская обл.
Name: Андрей
Соглашусь с тёзкой, что стилистически альбом невыдержан и представляет собой мешанину из нескольких стилей. Более того, вокал - тоже невыдержан и срывается то в трешевую скороговорку-ругалку, то в хриплое пение "а-ля Болтендаль", то в мдм-вое недоразумение : утробно-горловое о-оо-оо !, причём в пределах одной композиции. Но всё это, у меня, почему-то не вызвало никакого отвращения. Ну да - стиль не определить. Но если наплевать на определения и просто слушать музон - ничего так. Нормуль.


Top
 Profile  
 
 
PostPosted: 17 Feb 2011 
Хиппей (support team)
User avatar
Joined: 30 Jul 2007
Posts: 116001
Lоcаtion: Киев (Kyiv, UA)
Age: 46
Name: Andrey
andreycheb wrote:
Ну да - стиль не определить. Но если наплевать на определения и просто слушать музон - ничего так. Нормуль.

Ога, только чего-то они у меня в память ваще не врезались.
Надоть будет переслушать ранние работы. Хм, вижу, после этого "шедевра" чет они надолго задумались :sсratch:

_________________


Top
 Profile E-mail  
 
Display posts from previous:  Sort by  
Post new topic Reply to topic  [ 17 posts ] 

All times are UTC + 3 hours


Who is online

Users browsing this forum: No registered users and 1 guest


You cannot post new topics in this forum
You cannot reply to topics in this forum
You cannot edit your posts in this forum
You cannot delete your posts in this forum
You cannot post attachments in this forum

Search for:
Яндекс.Метрика
Powered by phpBB © 2000, 2002, 2005, 2007 phpBB Group