\m/ 80's metal \m/

Информационно-аналитический форум "80 см пыли" (In Search We Trust) "У нас никто никуда не спешит"
Me For You - http://me-4u.com
It is currently 14 Dec 2019

All times are UTC + 3 hours

Spoiler
Chat - temporary registration for foreign users (please leave your application here)







Post new topic Reply to topic  [ 20 posts ] 
Author Message
 
PostPosted: 12 Aug 2009 
Я набрал 1000 сообщений!
User avatar
Joined: 25 Dec 2008
Posts: 1545
Age: 44
Name: Павел
Убойная испанская группа!

Image

Fuck Off - Hell on Earth
Year:1990
Country:Spain
Genre:Speed/thrash
Format:APE+cue+log+scans
Size:402 Mb
Tracklist:
1. Embrion (intro)
2. Witch (Hell Below the Belly)
3. Blasphemy
4. Midnight Confession
5. Whom You Never to Say His Name
6. Don't You Have Fear
7. Hell on Earth
8. Inquisición
9. In Your Grave
10. Cyclone
Reissued on December 12, 2006 by Dark Rails Records with four bonus tracks from
an unreleased 1992 demo:

11. No te dejes engañar
12. ¿Qué es esto que hay ante mí?
13. Peligro social
14. La zorra de tu hermana

"Раздобыто" на ММТ.Релиз от ferroman

Fuck Off (1989) (Hell On Earth).rar


Top
 Profile  
 
 
PostPosted: 12 Aug 2009 
Работнечег
User avatar
Joined: 28 Aug 2007
Posts: 6086
Lоcаtion: г. Москва
Age: 30
Name: Дима
Пасибо большое,группа действительно отличная!Было в паршивом качестве.


Top
 Profile E-mail  
 
 
PostPosted: 13 Aug 2009 
Хиппей (support team)
User avatar
Joined: 30 Jul 2007
Posts: 116119
Lоcаtion: Киев (Kyiv, UA)
Age: 46
Name: Andrey
Опа. Спасибо большое :true:

_________________


Top
 Profile E-mail  
 
 
PostPosted: 13 Aug 2009 
Хиппей (support team)
User avatar
Joined: 30 Jul 2007
Posts: 116119
Lоcаtion: Киев (Kyiv, UA)
Age: 46
Name: Andrey
Ммм, для порядку не помешало бы в развернутом виде лог и куй запостить.

_________________


Top
 Profile E-mail  
 
 
PostPosted: 13 Aug 2009 
Труъ
User avatar
Joined: 15 Dec 2008
Posts: 131
Lоcаtion: Донбасс
Age: 47
Name: Евгений
Паша, спасибо большое :true: Был только рип в 320кб...а с ММТ, я так его и не вытянул...


Top
 Profile  
 
 
PostPosted: 14 Sep 2009 
5cm
User avatar
Joined: 01 Mar 2009
Posts: 61
Name: Сергей
Спасибо !


Top
 Profile  
 
 
PostPosted: 21 Sep 2013 
Трешер
User avatar
Joined: 25 Feb 2011
Posts: 1186
Lоcаtion: Харьков
Age: 43
Name: Aleksandr
А можно оживить :thanx:


Top
 Profile E-mail  
 
 
PostPosted: 21 Sep 2013 
Генеральный thrasher
User avatar
Joined: 03 Oct 2008
Posts: 3743
Lоcаtion: Ханты-Мансийский АО
Age: 44
Name: Сергей
А можно оживить :thanx:


Могу со своего рипнуть....Или у Оксаны можешь взять MMT-шный релиз.


Top
 Profile  
 
 
PostPosted: 21 Sep 2013 
Работнечег
User avatar
Joined: 28 Aug 2007
Posts: 6086
Lоcаtion: г. Москва
Age: 30
Name: Дима
Quote:
Могу со своего рипнуть....

аналогично


Top
 Profile E-mail  
 
 
PostPosted: 22 Sep 2013 
Анатолий
User avatar
Joined: 18 Oct 2008
Posts: 3637
Lоcаtion: Армавир
Age: 42
Name: Анатолий
Действительно так хороши?


Top
 Profile E-mail  
 
 
PostPosted: 22 Sep 2013 
Работнечег
User avatar
Joined: 28 Aug 2007
Posts: 6086
Lоcаtion: г. Москва
Age: 30
Name: Дима
Ну вообщем, да :true:


Top
 Profile E-mail  
 
 
PostPosted: 22 Sep 2013 
Генеральный thrasher
User avatar
Joined: 03 Oct 2008
Posts: 3743
Lоcаtion: Ханты-Мансийский АО
Age: 44
Name: Сергей
Толь,каждому своё конечно.Но я очень люблю эту команду. :true:


Top
 Profile  
 
 
PostPosted: 22 Sep 2013 
Анатолий
User avatar
Joined: 18 Oct 2008
Posts: 3637
Lоcаtion: Армавир
Age: 42
Name: Анатолий
Залейте тогда пожалуйста лося... послушаю, что сие такое.


Top
 Profile E-mail  
 
 
PostPosted: 22 Sep 2013 
Работнечег
User avatar
Joined: 28 Aug 2007
Posts: 6086
Lоcаtion: г. Москва
Age: 30
Name: Дима
Серег, сможешь залить? а то я чувствую у меня этот процесс намного ббольше времени займет... :oops:


Top
 Profile E-mail  
 
 
PostPosted: 23 Sep 2013 
Хиппей (support team)
User avatar
Joined: 30 Jul 2007
Posts: 116119
Lоcаtion: Киев (Kyiv, UA)
Age: 46
Name: Andrey
Действительно так хороши?

Я их где-то здесь ранее на форуме нещадно зачмырил :oops:
Но вроде один альбом всё же понравился :dance:

_________________


Top
 Profile E-mail  
 
 
PostPosted: 23 Sep 2013 
Генеральный thrasher
User avatar
Joined: 03 Oct 2008
Posts: 3743
Lоcаtion: Ханты-Мансийский АО
Age: 44
Name: Сергей
Залью сегодня свой рип... :losik:


Top
 Profile  
 
 
PostPosted: 23 Sep 2013 
Генеральный thrasher
User avatar
Joined: 03 Oct 2008
Posts: 3743
Lоcаtion: Ханты-Мансийский АО
Age: 44
Name: Сергей
Image

Year:1990 (2006 Re-Issue)
Style:Thrash Metal
Country:Spain
Audio:Flac+Cue+Log+Scans
Size:439Mb
Label:Dark Rails Records

Tracklist:
01. Embrion
02. Witch (Hell Below the Belly)
03. Blasphemy
04. Midnight Confession
05. Whom You Have Never To Say His Name
06. Don't You Have Fear
07. Hell on Earth
08. Inquisición
09. In Your Grave
10. Cyclone
11. No te dejes engañar
12. ¿Qué es esto que hay ante mí?
13. Peligro social
14. La zorra de tu hermana

"Cue"
REM GENRE "Thrash Metal"
REM DATE 1989
REM DISCID B40E3D0E
REM COMMENT "ExactAudioCopy v0.99pb5"
PERFORMER "Fuck Off"
TITLE "Hell On Earth"
FILE "Fuck Off - Hell On Earth.flac" WAVE
TRACK 01 AUDIO
TITLE "Embrion"
PERFORMER "Fuck Off"
FLAGS DCP
INDEX 01 00:00:00
TRACK 02 AUDIO
TITLE "Witch (Hell Below the Belly)"
PERFORMER "Fuck Off"
FLAGS DCP
INDEX 00 01:38:61
INDEX 01 01:40:61
TRACK 03 AUDIO
TITLE "Blasphemy"
PERFORMER "Fuck Off"
FLAGS DCP
INDEX 00 06:04:58
INDEX 01 06:06:58
TRACK 04 AUDIO
TITLE "Midnight Confession"
PERFORMER "Fuck Off"
FLAGS DCP
INDEX 00 10:42:33
INDEX 01 10:44:33
TRACK 05 AUDIO
TITLE "Whom You Have Never to Say His Name"
PERFORMER "Fuck Off"
FLAGS DCP
INDEX 00 15:47:27
INDEX 01 15:49:27
TRACK 06 AUDIO
TITLE "Don't You Have Fear"
PERFORMER "Fuck Off"
FLAGS DCP
INDEX 00 18:17:06
INDEX 01 18:19:06
TRACK 07 AUDIO
TITLE "Hell on Earth"
PERFORMER "Fuck Off"
FLAGS DCP
INDEX 00 21:43:07
INDEX 01 21:45:07
TRACK 08 AUDIO
TITLE "Inquisición"
PERFORMER "Fuck Off"
FLAGS DCP
INDEX 00 27:17:56
INDEX 01 27:19:56
TRACK 09 AUDIO
TITLE "In Your Grave"
PERFORMER "Fuck Off"
FLAGS DCP
INDEX 00 30:50:11
INDEX 01 30:52:11
TRACK 10 AUDIO
TITLE "Cyclone"
PERFORMER "Fuck Off"
FLAGS DCP
INDEX 00 36:12:57
INDEX 01 36:14:57
TRACK 11 AUDIO
TITLE "No te dejes engañar"
PERFORMER "Fuck Off"
FLAGS DCP
INDEX 00 45:46:43
INDEX 01 45:48:43
TRACK 12 AUDIO
TITLE "¿Qué es esto que hay ante mí?"
PERFORMER "Fuck Off"
FLAGS DCP
INDEX 00 51:26:24
INDEX 01 51:28:24
TRACK 13 AUDIO
TITLE "Peligro social"
PERFORMER "Fuck Off"
FLAGS DCP
INDEX 00 56:03:27
INDEX 01 56:05:27
TRACK 14 AUDIO
TITLE "La zorra de tu hermana"
PERFORMER "Fuck Off"
FLAGS DCP
INDEX 00 59:33:69
INDEX 01 59:35:69

"Log"
Exact Audio Copy V0.99 prebeta 5 from 4. May 2009

Отчёт EAC об извлечении, выполненном 23. сентября 2013, 11:05

Fuck Off / Hell On Earth

Дисковод: MATSHITADVD-RAM UJ8A0AS Adapter: 0 ID: 1

Режим чтения : Достоверность
Использование точного потока : Да
Отключение кэша аудио : Да
Использование указателей C2 : Нет

Коррекция смещения при чтении : 102
Способность читать области Lead-in и Lead-out : Нет
Заполнение пропущенных сэмплов тишиной : Да
Удаление блоков с тишиной в начале и конце : Нет
При вычислениях CRC использовались нулевые сэмплы : Да
Интерфейс : Встроенный Win32-интерфейс для Win NT/2000

Выходной формат : Пользовательский кодировщик
Выбранный битрейт : 1024 kBit/s
Качество : Высокий
Добавление ID3-тэга : Нет
Утилита сжатия : C:\Program Files\Exact Audio Copy\FLAC\FLAC.EXE
Дополнительные параметры : -6 -V -T "ARTIST=%a" -T "TITLE=%t" -T "ALBUM=%g" -T "DATE=%y" -T "TRACKNUMBER=%n" -T "GENRE=%m" -T "COMMENT=%e" %s -o %d


TOC извлечённого CD

Трек | Старт | Длительность | Начальный сектор | Конечный сектор
---------------------------------------------------------------------
1 | 0:00.00 | 1:40.61 | 0 | 7560
2 | 1:40.61 | 4:25.72 | 7561 | 27507
3 | 6:06.58 | 4:37.50 | 27508 | 48332
4 | 10:44.33 | 5:04.69 | 48333 | 71201
5 | 15:49.27 | 2:29.54 | 71202 | 82430
6 | 18:19.06 | 3:26.01 | 82431 | 97881
7 | 21:45.07 | 5:34.49 | 97882 | 122980
8 | 27:19.56 | 3:32.30 | 122981 | 138910
9 | 30:52.11 | 5:22.46 | 138911 | 163106
10 | 36:14.57 | 9:33.61 | 163107 | 206142
11 | 45:48.43 | 5:39.56 | 206143 | 231623
12 | 51:28.24 | 4:37.03 | 231624 | 252401
13 | 56:05.27 | 3:30.42 | 252402 | 268193
14 | 59:35.69 | 1:09.34 | 268194 | 273402


Характеристики диапазона извлечения и сообщения об ошибках

Выбранный диапазон

Имя файла C:\Users\эксперт\Music\Fuck Off - Hell On Earth.wav

Пиковый уровень 99.9 %
Качество диапазона 100.0 %
CRC копии A4F67D9C
Копирование... OK

Ошибок не произошло


AccurateRip: сводка

Трек 1 нет в базе данных
Трек 2 нет в базе данных
Трек 3 нет в базе данных
Трек 4 нет в базе данных
Трек 5 нет в базе данных
Трек 6 нет в базе данных
Трек 7 нет в базе данных
Трек 8 нет в базе данных
Трек 9 нет в базе данных
Трек 10 нет в базе данных
Трек 11 нет в базе данных
Трек 12 нет в базе данных
Трек 13 нет в базе данных
Трек 14 нет в базе данных

Ни одного трека нет в базе AccurateRip

Конец отчёта


Hell On Earth


Top
 Profile  
 
 
PostPosted: 23 Sep 2013 
Анатолий
User avatar
Joined: 18 Oct 2008
Posts: 3637
Lоcаtion: Армавир
Age: 42
Name: Анатолий
thorbeorn

Cпасибо, Сергей! :thanx: :true:


Top
 Profile E-mail  
 
 
PostPosted: 24 Sep 2013 
Хиппей (support team)
User avatar
Joined: 30 Jul 2007
Posts: 116119
Lоcаtion: Киев (Kyiv, UA)
Age: 46
Name: Andrey
:thanx:

mirror: Narod

_________________


Top
 Profile E-mail  
 
 
PostPosted: 29 Sep 2013 
Трешер
User avatar
Joined: 25 Feb 2011
Posts: 1186
Lоcаtion: Харьков
Age: 43
Name: Aleksandr
Благодарю :thanx:


Top
 Profile E-mail  
 
Display posts from previous:  Sort by  
Post new topic Reply to topic  [ 20 posts ] 

All times are UTC + 3 hours


Who is online

Users browsing this forum: No registered users and 1 guest


You cannot post new topics in this forum
You cannot reply to topics in this forum
You cannot edit your posts in this forum
You cannot delete your posts in this forum
You cannot post attachments in this forum

Search for:
Яндекс.Метрика
cron
Powered by phpBB © 2000, 2002, 2005, 2007 phpBB Group