\m/ 80's metal \m/

Информационно-аналитический форум "80 см пыли" (In Search We Trust) "У нас никто никуда не спешит"
Me For You - http://me-4u.com
It is currently 10 Dec 2019

All times are UTC + 3 hours

Spoiler
Chat - temporary registration for foreign users (please leave your application here)







Post new topic Reply to topic  [ 9 posts ] 
Author Message
 
PostPosted: 13 Aug 2018 
дядя Миша
User avatar
Joined: 17 Oct 2008
Posts: 3202
Lоcаtion: USSR
Age: 57
Name: Khy
Fist[1980-2018]Turn The Hell On(Japan-UICY-78663}


Image

Мало ли чо:
https://yadi.sk/d/MFfBKMYB3aAoiR

scans
Image

Image

Image

Image

Image

Image

Image

Image

Image

Image

Image


log
Exact Audio Copy V1.0 beta 6 from 9. April 2015

EAC extraction logfile from 13. August 2018, 11:01

Fist / Turn the Hell On

Used drive : Optiarc DVD RW AD-7243S Adapter: 2 ID: 0

Read mode : Secure
Utilize accurate stream : Yes
Defeat audio cache : Yes
Make use of C2 pointers : No

Read offset correction : 48
Overread into Lead-In and Lead-Out : No
Fill up missing offset samples with silence : Yes
Delete leading and trailing silent blocks : No
Null samples used in CRC calculations : Yes
Used interface : Installed external ASPI interface

Used output format : User Defined Encoder
Selected bitrate : 768 kBit/s
Quality : High
Add ID3 tag : No
Command line compressor : D:\Flac\flac-1.3.1-win\win64\flac.exe
Additional command line options : -V -8 -T "Date=%year%" -T "Genre=%genre%" %source%


TOC of the extracted CD

Track | Start | Length | Start sector | End sector
---------------------------------------------------------
1 | 0:00.00 | 3:33.32 | 0 | 16006
2 | 3:33.32 | 4:56.20 | 16007 | 38226
3 | 8:29.52 | 3:53.38 | 38227 | 55739
4 | 12:23.15 | 2:49.05 | 55740 | 68419
5 | 15:12.20 | 4:33.70 | 68420 | 88964
6 | 19:46.15 | 3:26.00 | 88965 | 104414
7 | 23:12.15 | 4:05.22 | 104415 | 122811
8 | 27:17.37 | 4:58.63 | 122812 | 145224
9 | 32:16.25 | 2:53.40 | 145225 | 158239
10 | 35:09.65 | 4:08.40 | 158240 | 176879
11 | 39:18.30 | 4:45.55 | 176880 | 198309
12 | 44:04.10 | 3:19.60 | 198310 | 213294


Range status and errors

Selected range

Filename D:\Varvaar r\Fist[1980-2018]Turn The Hell On(Japan-UICY-78663}\Fist - Turn the Hell On.wav

Peak level 100.0 %
Extraction speed 3.7 X
Range quality 99.9 %
Test CRC 36F1A8B6
Copy CRC 36F1A8B6
Copy OK

No errors occurred


AccurateRip summary

Track 1 cannot be verified as accurate (confidence 1) [A587C341], AccurateRip returned [51128A4F] (AR v2)
Track 2 cannot be verified as accurate (confidence 1) [2F7DD7C1], AccurateRip returned [F81C215E] (AR v2)
Track 3 cannot be verified as accurate (confidence 1) [CAD34AC6], AccurateRip returned [8511F73F] (AR v2)
Track 4 cannot be verified as accurate (confidence 1) [1045B6F0], AccurateRip returned [F0A1F697] (AR v2)
Track 5 cannot be verified as accurate (confidence 1) [99268020], AccurateRip returned [239FDB66] (AR v2)
Track 6 cannot be verified as accurate (confidence 1) [D10763D8], AccurateRip returned [203BE9B5] (AR v2)
Track 7 cannot be verified as accurate (confidence 1) [77D99932], AccurateRip returned [BB708068] (AR v2)
Track 8 cannot be verified as accurate (confidence 1) [B23128DD], AccurateRip returned [58122C68] (AR v2)
Track 9 cannot be verified as accurate (confidence 1) [14680517], AccurateRip returned [EE57D182] (AR v2)
Track 10 cannot be verified as accurate (confidence 1) [5DFB6FEE], AccurateRip returned [9B7EFDAE] (AR v2)
Track 11 cannot be verified as accurate (confidence 1) [51ADFA81], AccurateRip returned [643A459E] (AR v2)
Track 12 cannot be verified as accurate (confidence 1) [93CBB27D], AccurateRip returned [37A75E5C] (AR v2)

No tracks could be verified as accurate
You may have a different pressing from the one(s) in the database

End of status report

==== Log checksum 26D468C33C7C7C2E5B38C5857CEF9D2834AE6DAA437819EA66390AAD379CCDA7 ====

cue
REM GENRE Metal
REM DATE 1980
REM DISCID 9C0B1B0C
REM COMMENT "ExactAudioCopy v1.0b6"
PERFORMER "Fist"
TITLE "Turn the Hell On"
FILE "Fist - Turn the Hell On.Flac" WAVE
TRACK 01 AUDIO
TITLE "Hole in the Wall Gang"
PERFORMER "Fist"
INDEX 01 00:00:00
TRACK 02 AUDIO
TITLE "The Watcher"
PERFORMER "Fist"
INDEX 00 03:32:26
INDEX 01 03:33:32
TRACK 03 AUDIO
TITLE "Collision Course"
PERFORMER "Fist"
INDEX 00 08:27:66
INDEX 01 08:29:52
TRACK 04 AUDIO
TITLE "You'll Never Get Me Up (In One of Those)"
PERFORMER "Fist"
INDEX 00 12:21:36
INDEX 01 12:23:15
TRACK 05 AUDIO
TITLE "Forever Amber"
PERFORMER "Fist"
INDEX 00 15:10:31
INDEX 01 15:12:20
TRACK 06 AUDIO
TITLE "Axeman"
PERFORMER "Fist"
INDEX 00 19:45:31
INDEX 01 19:46:15
TRACK 07 AUDIO
TITLE "The Vamp"
PERFORMER "Fist"
INDEX 00 23:10:61
INDEX 01 23:12:15
TRACK 08 AUDIO
TITLE "Terminus"
PERFORMER "Fist"
INDEX 00 27:15:63
INDEX 01 27:17:37
TRACK 09 AUDIO
TITLE "One Percenter"
PERFORMER "Fist"
INDEX 00 32:14:73
INDEX 01 32:16:25
TRACK 10 AUDIO
TITLE "Name, Rank and Serial Number"
PERFORMER "Fist"
INDEX 00 35:07:66
INDEX 01 35:09:65
TRACK 11 AUDIO
TITLE "Brain Damage"
PERFORMER "Fist"
INDEX 00 39:16:71
INDEX 01 39:18:30
TRACK 12 AUDIO
TITLE "Law of the Jungle"
PERFORMER "Fist"
INDEX 00 44:02:48
INDEX 01 44:04:10


Last edited by Scatterbrain on 14 Aug 2018, edited 3 times in total.
Имя топика изменено на более информативное и добавлены внутренности из папки архивной


Top
 Profile  
 
 
PostPosted: 13 Aug 2018 
семерых одним ударом
Joined: 18 Aug 2007
Posts: 4293
Lоcаtion: Владивосток
Age: 44
Name: Николай Николаевич
О, fist крутяк- забираем!! Спасибо


Top
 Profile  
 
 
PostPosted: 13 Aug 2018 
Хиппей (support team)
User avatar
Joined: 30 Jul 2007
Posts: 116047
Lоcаtion: Киев (Kyiv, UA)
Age: 46
Name: Andrey
:thanx:

Миш, на вменяемое оформление сил нет? :(

mirror: Uloz l Drop l M-Cloud l Narod

_________________


Top
 Profile E-mail  
 
 
PostPosted: 13 Aug 2018 
Рарник и трушник
User avatar
Joined: 25 Dec 2009
Posts: 8836
Lоcаtion: Москва
Age: 54
Name: Виталий
:thanx:


Top
 Profile  
 
 
PostPosted: 13 Aug 2018 
Прокъмитолист
User avatar
Joined: 12 Aug 2007
Posts: 6652
Lоcаtion: Санктъ-Петербуркъ
Age: 52
Name: Олекъ
:thanx:

_________________
прокъметол - это музыко, от которово есть прок (ы)


Top
 Profile  
 
 
PostPosted: 13 Aug 2018 
А может смените мне статус?..
User avatar
Joined: 24 Dec 2008
Posts: 650
Age: 45
Name: Дмитрий
Благодарю! :thanx:


Top
 Profile  
 
 
PostPosted: 14 Aug 2018 
Хиппей (support team)
User avatar
Joined: 30 Jul 2007
Posts: 116047
Lоcаtion: Киев (Kyiv, UA)
Age: 46
Name: Andrey
VARVAAR wrote:
Fist[1980-2018]Turn The Hell On(Japan-UICY-78663}

В общем музыка устарела для нонешнего дня но 5-7 хитов на этом сборнике всё же слушаются весьма приятно и сейчас :meloman:

6+/10

_________________


Top
 Profile E-mail  
 
 
PostPosted: 14 Aug 2018 
Хиппей (support team)
User avatar
Joined: 30 Jul 2007
Posts: 116047
Lоcаtion: Киев (Kyiv, UA)
Age: 46
Name: Andrey
Возможно немного грубо, но обзову этот коллектив.. английским Nazareth'ом :kro:

_________________


Top
 Profile E-mail  
 
 
PostPosted: 15 Aug 2018 
А может смените мне статус?..
Joined: 03 Jul 2009
Posts: 891
Lоcаtion: Serbia
Name: Laki
:thanx:


Top
 Profile E-mail  
 
Display posts from previous:  Sort by  
Post new topic Reply to topic  [ 9 posts ] 

All times are UTC + 3 hours


Who is online

Users browsing this forum: No registered users and 2 guests


You cannot post new topics in this forum
You cannot reply to topics in this forum
You cannot edit your posts in this forum
You cannot delete your posts in this forum
You cannot post attachments in this forum

Search for:
Яндекс.Метрика
cron
Powered by phpBB © 2000, 2002, 2005, 2007 phpBB Group