\m/ 80's metal \m/

Информационно-аналитический форум "80 см пыли" (In Search We Trust) "У нас никто никуда не спешит"
Me For You - http://me-4u.com
It is currently 07 Dec 2019

All times are UTC + 3 hours

Spoiler
Chat - temporary registration for foreign users (please leave your application here)







Post new topic Reply to topic  [ 3 posts ] 
Author Message
 
PostPosted: 13 Feb 2017 
Генеральный thrasher
User avatar
Joined: 03 Oct 2008
Posts: 3743
Lоcаtion: Ханты-Мансийский АО
Age: 44
Name: Сергей
Ещё итальянцы,только спидушные.Ничего навороченного.Простенькая музыка.

Image

Year:2015
Style:Speed Metal
Country:Italy
Archive:Flac+Cue+Log+Scans
Source:my CD
Size:227Mb
Label:DeathStorm Records

Tracklist:
1. Sign Of The Razor 04:10
2. Ready To Explode 03:21
3. K.K.K. (Kous Kous Klan) 03:03
4. Horny Housewives 04:26
5. Interflug (Instrumental) 02:30
6. Change Of Address 02:30
7. Storm On The World 03:48
8. Snake Eyes (Razor Cover) 02:34
9. No So Stupid (To Lose Weight For Love) 04:03

"Cue"
REM GENRE "Speed Metal"
REM DATE 2015
REM DISCID 59072009
REM COMMENT "ExactAudioCopy v1.1"
PERFORMER "Fallen Fucking Angels"
TITLE "Sign Of The Razor"
FILE "Fallen Fucking Angels - Sign Of The Razor.flac" WAVE
TRACK 01 AUDIO
TITLE "Sign Of The Razor"
PERFORMER "Fallen Fucking Angels"
INDEX 01 00:00:00
TRACK 02 AUDIO
TITLE "Ready To Explode"
PERFORMER "Fallen Fucking Angels"
INDEX 00 04:07:55
INDEX 01 04:09:55
TRACK 03 AUDIO
TITLE "K.K.K. (Kous Kous Klan)"
PERFORMER "Fallen Fucking Angels"
INDEX 00 07:28:49
INDEX 01 07:30:49
TRACK 04 AUDIO
TITLE "Horny Housewives"
PERFORMER "Fallen Fucking Angels"
INDEX 00 10:31:35
INDEX 01 10:33:35
TRACK 05 AUDIO
TITLE "Interflug"
PERFORMER "Fallen Fucking Angels"
INDEX 00 14:57:71
INDEX 01 14:59:71
TRACK 06 AUDIO
TITLE "Change Of Address"
PERFORMER "Fallen Fucking Angels"
INDEX 00 17:27:35
INDEX 01 17:29:35
TRACK 07 AUDIO
TITLE "Storm On The World"
PERFORMER "Fallen Fucking Angels"
INDEX 00 19:57:58
INDEX 01 19:59:58
TRACK 08 AUDIO
TITLE "Snake Eyes (Razor Cover)"
PERFORMER "Fallen Fucking Angels"
INDEX 00 23:45:49
INDEX 01 23:47:49
TRACK 09 AUDIO
TITLE "No So Stupid (To Lose Weight For Love)"
PERFORMER "Fallen Fucking Angels"
INDEX 00 26:19:23
INDEX 01 26:21:23

"Log"
Exact Audio Copy V1.1 from 23. June 2015

Отчёт EAC об извлечении, выполненном 13. февраля 2017, 11:29

Fallen Fucking Angels / Sign Of The Razor

Дисковод: HL-DT-STDVDRAM GTA0N Adapter: 1 ID: 0

Режим чтения : Достоверность
Использование точного потока : Да
Отключение кэша аудио : Да
Использование указателей C2 : Нет

Коррекция смещения при чтении : 102
Способность читать области Lead-in и Lead-out : Нет
Заполнение пропущенных сэмплов тишиной : Да
Удаление блоков с тишиной в начале и конце : Нет
При вычислениях CRC использовались нулевые сэмплы : Да
Интерфейс : Встроенный Win32-интерфейс для Win NT/2000

Выходной формат : Пользовательский кодировщик
Выбранный битрейт : 768 kBit/s
Качество : Высокий
Добавление ID3-тега : Нет
Утилита сжатия : C:\Program Files (x86)\Exact Audio Copy\FLAC\FLAC.EXE
Дополнительные параметры : -6 -V -T "ARTIST=%artist%" -T "TITLE=%title%" -T "ALBUM=%albumtitle%" -T "DATE=%year%" -T "TRACKNUMBER=%tracknr%" -T "GENRE=%genre%" -T "COMMENT=%comment%" -T "BAND=%albuminterpret%" -T "ALBUMARTIST=%albuminterpret%" -T "COMPOSER=%composer%" %haslyrics%--tag-from-file=LYRICS="%lyricsfile%"%haslyrics% -T "DISCNUMBER=%cdnumber%" -T "TOTALDISCS=%totalcds%" -T "TOTALTRACKS=%numtracks%" %hascover%--picture="%coverfile%"%hascover% %source% -o %dest%


TOC извлечённого CD

Трек | Старт | Длительность | Начальный сектор | Конечный сектор
---------------------------------------------------------------------
1 | 0:00.00 | 4:09.55 | 0 | 18729
2 | 4:09.55 | 3:20.69 | 18730 | 33798
3 | 7:30.49 | 3:02.61 | 33799 | 47509
4 | 10:33.35 | 4:26.36 | 47510 | 67495
5 | 14:59.71 | 2:29.39 | 67496 | 78709
6 | 17:29.35 | 2:30.23 | 78710 | 89982
7 | 19:59.58 | 3:47.66 | 89983 | 107073
8 | 23:47.49 | 2:33.49 | 107074 | 118597
9 | 26:21.23 | 4:02.60 | 118598 | 136807


Характеристики диапазона извлечения и сообщения об ошибках

Выбранный диапазон

Имя файла C:\Users\магазин\Music\Fallen Fucking Angels - Sign Of The Razor.wav

Пиковый уровень 100.0 %
Скорость извлечения 3.6 X
Качество диапазона 100.0 %
CRC теста CD44261F
CRC копии CD44261F
Копирование... OK

Ошибок не произошло


AccurateRip: сводка

Трек 1 отсутствует в базе данных
Трек 2 отсутствует в базе данных
Трек 3 отсутствует в базе данных
Трек 4 отсутствует в базе данных
Трек 5 отсутствует в базе данных
Трек 6 отсутствует в базе данных
Трек 7 отсутствует в базе данных
Трек 8 отсутствует в базе данных
Трек 9 отсутствует в базе данных

Ни одного трека нет в базе AccurateRip

Конец отчёта

---- CUETools DB Plugin V2.1.6

[CTDB TOCID: l5hOy7_gPn92f9ihiuelQm_WL9s-] found
Submit result: already submitted
Track | CTDB Status
1 | (1/1) Accurately ripped
2 | (1/1) Accurately ripped
3 | (1/1) Accurately ripped
4 | (1/1) Accurately ripped
5 | (1/1) Accurately ripped
6 | (1/1) Accurately ripped
7 | (1/1) Accurately ripped
8 | (1/1) Accurately ripped
9 | (1/1) Accurately ripped


Sign Of The Razor


Top
 Profile  
 
 
PostPosted: 13 Feb 2017 
Прокъмитолист
User avatar
Joined: 12 Aug 2007
Posts: 6649
Lоcаtion: Санктъ-Петербуркъ
Age: 52
Name: Олекъ
:thanx:

_________________
прокъметол - это музыко, от которово есть прок (ы)


Top
 Profile  
 
 
PostPosted: 13 Feb 2017 
консэрваторъ
User avatar
Joined: 11 Aug 2007
Posts: 17498
Lоcаtion: Псков
Age: 45
Name: Сергей
FALLEN FUCKING ANGELS Sign Of The Razor | +

:nea:

_________________
THRASH 'EM ALL


Top
 Profile E-mail  
 
Display posts from previous:  Sort by  
Post new topic Reply to topic  [ 3 posts ] 

All times are UTC + 3 hours


Who is online

Users browsing this forum: No registered users and 1 guest


You cannot post new topics in this forum
You cannot reply to topics in this forum
You cannot edit your posts in this forum
You cannot delete your posts in this forum
You cannot post attachments in this forum

Search for:
Яндекс.Метрика
Powered by phpBB © 2000, 2002, 2005, 2007 phpBB Group