\m/ 80's metal \m/

Информационно-аналитический форум "80 см пыли" (In Search We Trust) "У нас никто никуда не спешит"
Me For You - http://me-4u.com
It is currently 11 Dec 2019

All times are UTC + 3 hours

Spoiler
Chat - temporary registration for foreign users (please leave your application here)







Post new topic Reply to topic  [ 7 posts ] 
Author Message
 
PostPosted: 03 Apr 2016 
Генеральный thrasher
User avatar
Joined: 03 Oct 2008
Posts: 3743
Lоcаtion: Ханты-Мансийский АО
Age: 44
Name: Сергей
Данный образчик трэша пожалуй понравится Олегу spiralarch...Хотя может быть есть у него такая банда... :vic:

Image

Year:2011
Style:Thrash Metal
Country:U.S.A.
Archive:Flac+Cue+Log+Scans
Size:467Mb
Source:my CD
Label:Self-Release

Dustin Hamel - vocals,guitars
Paul Orkin - bass,backing vocals
Tom Stowe - drums
Dave Orkin - guitars,backing vocals

Tracklist:
01. The Battle Hymn (Part 1) 01:09
02. The Battle Hymn (Part 2) 07:11
03. The Art of Concepts 02:16
04. Ill-Gotten Gains 06:36
05. March Until Dawn 07:02
06. The Age of Ashes 04:39
07. Depths of the Soul 00:55
08. The Pact Primeval 05:06
09. Demonology 05:02
10. Prophecy 01:29
11. Recurring Nightmare 05:45
12. Storm the Gates 05:05
13. Death of a God 05:45
14. Divine Empathy 01:22
15. Swallow the Sun 05:37

"Cue"
REM GENRE "Thrash Metal"
REM DATE 2011
REM DISCID B60F330F
REM COMMENT "ExactAudioCopy v1.1"
PERFORMER "Flesh Engine "
TITLE "Walking the Aether"
FILE "Flesh Engine - Walking the Aether.flac" WAVE
TRACK 01 AUDIO
TITLE "The Battle Hymn (Part 1)"
PERFORMER "Flesh Engine "
INDEX 01 00:00:00
TRACK 02 AUDIO
TITLE "The Battle Hymn (Part 2)"
PERFORMER "Flesh Engine "
INDEX 01 01:08:09
TRACK 03 AUDIO
TITLE "The Art of Concepts"
PERFORMER "Flesh Engine "
INDEX 01 08:18:20
TRACK 04 AUDIO
TITLE "Ill-Gotten Gains"
PERFORMER "Flesh Engine "
INDEX 01 10:33:49
TRACK 05 AUDIO
TITLE "March Until Dawn"
PERFORMER "Flesh Engine "
INDEX 01 17:08:65
TRACK 06 AUDIO
TITLE "The Age of Ashes"
PERFORMER "Flesh Engine "
INDEX 01 24:10:04
TRACK 07 AUDIO
TITLE "Depths of the Soul"
PERFORMER "Flesh Engine "
INDEX 01 28:48:51
TRACK 08 AUDIO
TITLE "The Pact Primeval"
PERFORMER "Flesh Engine "
INDEX 01 29:43:30
TRACK 09 AUDIO
TITLE "Demonology"
PERFORMER "Flesh Engine "
INDEX 01 34:49:20
TRACK 10 AUDIO
TITLE "Prophecy"
PERFORMER "Flesh Engine "
INDEX 01 39:50:60
TRACK 11 AUDIO
TITLE "Recurring Nightmare"
PERFORMER "Flesh Engine "
INDEX 01 41:19:53
TRACK 12 AUDIO
TITLE "Storm the Gates"
PERFORMER "Flesh Engine "
INDEX 01 47:04:29
TRACK 13 AUDIO
TITLE "Death of a God"
PERFORMER "Flesh Engine "
INDEX 01 52:08:54
TRACK 14 AUDIO
TITLE "Divine Empathy"
PERFORMER "Flesh Engine "
INDEX 01 57:53:44
TRACK 15 AUDIO
TITLE "Swallow the Sun"
PERFORMER "Flesh Engine "
INDEX 01 59:14:57

"Log"
Exact Audio Copy V1.1 from 23. June 2015

Отчёт EAC об извлечении, выполненном 1. апреля 2016, 15:48

Flesh Engine / Walking the Aether

Дисковод: HL-DT-STDVDRAM GTA0N Adapter: 1 ID: 0

Режим чтения : Достоверность
Использование точного потока : Да
Отключение кэша аудио : Да
Использование указателей C2 : Нет

Коррекция смещения при чтении : 102
Способность читать области Lead-in и Lead-out : Нет
Заполнение пропущенных сэмплов тишиной : Да
Удаление блоков с тишиной в начале и конце : Нет
При вычислениях CRC использовались нулевые сэмплы : Да
Интерфейс : Встроенный Win32-интерфейс для Win NT/2000

Выходной формат : Пользовательский кодировщик
Выбранный битрейт : 768 kBit/s
Качество : Высокий
Добавление ID3-тега : Нет
Утилита сжатия : C:\Program Files (x86)\Exact Audio Copy\FLAC\FLAC.EXE
Дополнительные параметры : -6 -V -T "ARTIST=%artist%" -T "TITLE=%title%" -T "ALBUM=%albumtitle%" -T "DATE=%year%" -T "TRACKNUMBER=%tracknr%" -T "GENRE=%genre%" -T "COMMENT=%comment%" -T "BAND=%albuminterpret%" -T "ALBUMARTIST=%albuminterpret%" -T "COMPOSER=%composer%" %haslyrics%--tag-from-file=LYRICS="%lyricsfile%"%haslyrics% -T "DISCNUMBER=%cdnumber%" -T "TOTALDISCS=%totalcds%" -T "TOTALTRACKS=%numtracks%" %hascover%--picture="%coverfile%"%hascover% %source% -o %dest%


TOC извлечённого CD

Трек | Старт | Длительность | Начальный сектор | Конечный сектор
---------------------------------------------------------------------
1 | 0:00.00 | 1:08.09 | 0 | 5108
2 | 1:08.09 | 7:10.11 | 5109 | 37369
3 | 8:18.20 | 2:15.29 | 37370 | 47523
4 | 10:33.49 | 6:35.16 | 47524 | 77164
5 | 17:08.65 | 7:01.14 | 77165 | 108753
6 | 24:10.04 | 4:38.47 | 108754 | 129650
7 | 28:48.51 | 0:54.54 | 129651 | 133754
8 | 29:43.30 | 5:05.65 | 133755 | 156694
9 | 34:49.20 | 5:01.40 | 156695 | 179309
10 | 39:50.60 | 1:28.68 | 179310 | 185977
11 | 41:19.53 | 5:44.51 | 185978 | 211828
12 | 47:04.29 | 5:04.25 | 211829 | 234653
13 | 52:08.54 | 5:44.65 | 234654 | 260518
14 | 57:53.44 | 1:21.13 | 260519 | 266606
15 | 59:14.57 | 5:36.41 | 266607 | 291847


Характеристики диапазона извлечения и сообщения об ошибках

Выбранный диапазон

Имя файла C:\Users\магазин\Music\Flesh Engine - Walking the Aether.wav

Пиковый уровень 98.1 %
Скорость извлечения 4.3 X
Качество диапазона 100.0 %
CRC копии 3CE22CD2
Копирование... OK

Ошибок не произошло


AccurateRip: сводка

Трек 1 отсутствует в базе данных
Трек 2 отсутствует в базе данных
Трек 3 отсутствует в базе данных
Трек 4 отсутствует в базе данных
Трек 5 отсутствует в базе данных
Трек 6 отсутствует в базе данных
Трек 7 отсутствует в базе данных
Трек 8 отсутствует в базе данных
Трек 9 отсутствует в базе данных
Трек 10 отсутствует в базе данных
Трек 11 отсутствует в базе данных
Трек 12 отсутствует в базе данных
Трек 13 отсутствует в базе данных
Трек 14 отсутствует в базе данных
Трек 15 отсутствует в базе данных

Ни одного трека нет в базе AccurateRip

Конец отчёта

---- CUETools DB Plugin V2.1.6

[CTDB TOCID: h21z2RDkO56YBNttrL9xkA99xl8-] found
Submit result: h21z2RDkO56YBNttrL9xkA99xl8- has been confirmed
Track | CTDB Status
1 | (2/2) Accurately ripped
2 | (2/2) Accurately ripped
3 | (2/2) Accurately ripped
4 | (2/2) Accurately ripped
5 | (2/2) Accurately ripped
6 | (2/2) Accurately ripped
7 | (2/2) Accurately ripped
8 | (2/2) Accurately ripped
9 | (2/2) Accurately ripped
10 | (2/2) Accurately ripped
11 | (2/2) Accurately ripped
12 | (2/2) Accurately ripped
13 | (2/2) Accurately ripped
14 | (2/2) Accurately ripped
15 | (2/2) Accurately ripped


Walking the Aether

Image

Year:2014
Style:Thrash Metal
Country:U.S.A.
Archive:Flac+Cue+Log+Scans
Size:371Mb
Source:my CD
Label:Slaney Records

Line-Up:
Dustin Hamel - vocals,guitars
Paul Orkin - bass,backing vocals
Ted Domzalski - drums
Dave Orkin - guitars,backing vocals

Tracklist:
01. The Devil's Shadow 02:23
02. Walker of the Planes 07:16
03. Diamond Cross 04:23
04. Plagued Winds 06:36
05. Purging Existence 05:29
06. Overclocking 06:13
07. Force of Will 06:52
08. Playing on the Fear of Gods 06:53
09. Reduce to Nothing 05:46

"Cue"
REM GENRE "Thrash Metal"
REM DATE 2014
REM DISCID 790C2309
REM COMMENT "ExactAudioCopy v1.1"
PERFORMER "Flesh Engine "
TITLE "Purging Existence"
FILE "Flesh Engine - Purging Existence.flac" WAVE
TRACK 01 AUDIO
TITLE "The Devil's Shadow"
PERFORMER "Flesh Engine "
FLAGS DCP
INDEX 01 00:00:00
TRACK 02 AUDIO
TITLE "Walker of the Planes"
PERFORMER "Flesh Engine "
FLAGS DCP
INDEX 01 02:22:47
TRACK 03 AUDIO
TITLE "Diamond Cross"
PERFORMER "Flesh Engine "
FLAGS DCP
INDEX 01 09:38:36
TRACK 04 AUDIO
TITLE "Plagued Winds"
PERFORMER "Flesh Engine "
FLAGS DCP
INDEX 01 14:00:60
TRACK 05 AUDIO
TITLE "Purging Existence"
PERFORMER "Flesh Engine "
FLAGS DCP
INDEX 01 20:36:09
TRACK 06 AUDIO
TITLE "Overclocking"
PERFORMER "Flesh Engine "
FLAGS DCP
INDEX 01 26:04:56
TRACK 07 AUDIO
TITLE "Force of Will"
PERFORMER "Flesh Engine "
FLAGS DCP
INDEX 01 32:17:39
TRACK 08 AUDIO
TITLE "Playing on the Fear of Gods"
PERFORMER "Flesh Engine "
FLAGS DCP
INDEX 01 39:09:16
TRACK 09 AUDIO
TITLE "Reduce to Nothing"
PERFORMER "Flesh Engine "
FLAGS DCP
INDEX 01 46:01:47

"Log"
Exact Audio Copy V1.1 from 23. June 2015

Отчёт EAC об извлечении, выполненном 2. января 2016, 11:22

Flesh Engine / Purging Existence

Дисковод: HL-DT-STDVDRAM GTA0N Adapter: 1 ID: 0

Режим чтения : Достоверность
Использование точного потока : Да
Отключение кэша аудио : Да
Использование указателей C2 : Нет

Коррекция смещения при чтении : 102
Способность читать области Lead-in и Lead-out : Нет
Заполнение пропущенных сэмплов тишиной : Да
Удаление блоков с тишиной в начале и конце : Нет
При вычислениях CRC использовались нулевые сэмплы : Да
Интерфейс : Встроенный Win32-интерфейс для Win NT/2000

Выходной формат : Пользовательский кодировщик
Выбранный битрейт : 768 kBit/s
Качество : Высокий
Добавление ID3-тега : Нет
Утилита сжатия : C:\Program Files (x86)\Exact Audio Copy\FLAC\FLAC.EXE
Дополнительные параметры : -6 -V -T "ARTIST=%artist%" -T "TITLE=%title%" -T "ALBUM=%albumtitle%" -T "DATE=%year%" -T "TRACKNUMBER=%tracknr%" -T "GENRE=%genre%" -T "COMMENT=%comment%" -T "BAND=%albuminterpret%" -T "ALBUMARTIST=%albuminterpret%" -T "COMPOSER=%composer%" %haslyrics%--tag-from-file=LYRICS="%lyricsfile%"%haslyrics% -T "DISCNUMBER=%cdnumber%" -T "TOTALDISCS=%totalcds%" -T "TOTALTRACKS=%numtracks%" %hascover%--picture="%coverfile%"%hascover% %source% -o %dest%


TOC извлечённого CD

Трек | Старт | Длительность | Начальный сектор | Конечный сектор
---------------------------------------------------------------------
1 | 0:00.00 | 2:22.47 | 0 | 10696
2 | 2:22.47 | 7:15.64 | 10697 | 43385
3 | 9:38.36 | 4:22.24 | 43386 | 63059
4 | 14:00.60 | 6:35.24 | 63060 | 92708
5 | 20:36.09 | 5:28.47 | 92709 | 117355
6 | 26:04.56 | 6:12.58 | 117356 | 145313
7 | 32:17.39 | 6:51.52 | 145314 | 176190
8 | 39:09.16 | 6:52.31 | 176191 | 207121
9 | 46:01.47 | 5:45.45 | 207122 | 233041


Характеристики диапазона извлечения и сообщения об ошибках

Выбранный диапазон

Имя файла C:\Users\магазин\Music\Flesh Engine - Purging Existence.wav

Пиковый уровень 94.1 %
Скорость извлечения 4.0 X
Качество диапазона 99.9 %
CRC копии 928EC149
Копирование... OK

Ошибок не произошло


AccurateRip: сводка

Трек 1 : извлечено точно (доверие 1) [3CBD93AD] (AR v2)
Трек 2 : извлечено точно (доверие 1) [D8621080] (AR v2)
Трек 3 : извлечено точно (доверие 1) [AEC7E530] (AR v2)
Трек 4 : извлечено точно (доверие 1) [C6E01943] (AR v2)
Трек 5 : извлечено точно (доверие 1) [51BFA89E] (AR v2)
Трек 6 : извлечено точно (доверие 1) [9B53141E] (AR v2)
Трек 7 : извлечено точно (доверие 1) [878C5D05] (AR v2)
Трек 8 : извлечено точно (доверие 1) [0FD6D534] (AR v2)
Трек 9 : извлечено точно (доверие 1) [12FB2337] (AR v2)

Все треки извлечены точно

Конец отчёта

---- CUETools DB Plugin V2.1.6

[CTDB TOCID: LfuR07pDjmDE7I9ziSkGoIXgH3M-] found
Submit result: LfuR07pDjmDE7I9ziSkGoIXgH3M- has been confirmed
Track | CTDB Status
1 | (1/1) Accurately ripped
2 | (1/1) Accurately ripped
3 | (1/1) Accurately ripped
4 | (1/1) Accurately ripped
5 | (1/1) Accurately ripped
6 | (1/1) Accurately ripped
7 | (1/1) Accurately ripped
8 | (1/1) Accurately ripped
9 | (1/1) Accurately ripped


Purging Existence


Top
 Profile  
 
 
PostPosted: 03 Apr 2016 
Прокъмитолист
User avatar
Joined: 12 Aug 2007
Posts: 6652
Lоcаtion: Санктъ-Петербуркъ
Age: 52
Name: Олекъ
нет, Серёга, не слышал таких. так что с благодарностью забираю :thanx:

_________________
прокъметол - это музыко, от которово есть прок (ы)


Top
 Profile  
 
 
PostPosted: 03 Apr 2016 
консэрваторъ
User avatar
Joined: 11 Aug 2007
Posts: 17500
Lоcаtion: Псков
Age: 45
Name: Сергей
Енто прокЪ трасх!.. :true:

_________________
THRASH 'EM ALL


Top
 Profile E-mail  
 
 
PostPosted: 03 Apr 2016 
Доктор энтомологии
User avatar
Joined: 22 Jan 2009
Posts: 9980
Lоcаtion: Даугавпилс
Age: 44
Name: Алексей
ставлю галошку, скачать мптри потом, вдруг понравится. :lob:
спасибо за наводочку возможно интереного треша


Top
 Profile  
 
 
PostPosted: 04 Apr 2016 
Alive Again
User avatar
Joined: 17 Dec 2008
Posts: 4750
Lоcаtion: Курск Воронеж Оскол
Age: 45
Name: Дмитрий
:thanx:


Top
 Profile E-mail  
 
 
PostPosted: 04 Apr 2016 
Генеральный thrasher
User avatar
Joined: 03 Oct 2008
Posts: 3743
Lоcаtion: Ханты-Мансийский АО
Age: 44
Name: Сергей
Енто прокЪ трасх!.. :true:


Да!Пожалуй стиль надо было указать как христианский progressive thrash... :umnik:


Top
 Profile  
 
 
PostPosted: 05 Apr 2016 
ТрэшЭрос
User avatar
Joined: 18 Jul 2011
Posts: 2307
Lоcаtion: Гулькевичи
Age: 44
Name: Александр
Первый стянул, но не дослушал. Видимо, не моё... :oops:
Спасибо за знакомство!

_________________
Thrash no trash!!!


Top
 Profile E-mail  
 
Display posts from previous:  Sort by  
Post new topic Reply to topic  [ 7 posts ] 

All times are UTC + 3 hours


Who is online

Users browsing this forum: No registered users and 1 guest


You cannot post new topics in this forum
You cannot reply to topics in this forum
You cannot edit your posts in this forum
You cannot delete your posts in this forum
You cannot post attachments in this forum

Search for:
Яндекс.Метрика
Powered by phpBB © 2000, 2002, 2005, 2007 phpBB Group