\m/ 80's metal \m/

Информационно-аналитический форум "80 см пыли" (In Search We Trust) "У нас никто никуда не спешит"
Me For You - http://me-4u.com
It is currently 10 Dec 2019

All times are UTC + 3 hours

Spoiler
Chat - temporary registration for foreign users (please leave your application here)







Post new topic Reply to topic  [ 3 posts ] 
Author Message
 
PostPosted: 18 Sep 2015 
Генеральный thrasher
User avatar
Joined: 03 Oct 2008
Posts: 3743
Lоcаtion: Ханты-Мансийский АО
Age: 44
Name: Сергей
Перезаписанная классика с всяческими бонусами от пионеров испанского трэша.

Image

Year:2015
Style:Thrash Metal
Country:Spain
Archive:Flac+Cue+Log+Scans
Size:458Mb
Source:my CD
Label:Xtreem Music

Tracklist:
01. Hell on Earth (2014) 04:02
02. Blasphemy (2014) 04:10
03. Whom You Have Never To Say His Name (2014) 02:23
04. Rider From Hell (2014) 04:43
05. Embraced By Religion (2014) 02:17
06. Witch, Hell Below the Belly (2014) 04:10
07. Midnight Confession (2014) 03:15
08. Torquemada (2000 Invasion Demo) 04:03
09. Cyclone Pt. IV (2000 Invasion Demo) 01:00
10. Hell On Earth (2013 Long Version) 05:03
11. Midnight Confession (2013 Long Version) 04:34
12. Embrion, Witch Below the Belly (1989 Single Version) 05:48
13. Inquisicion (1989 Single Version) 03:09
14. Hell On Earth (1989 Single Version) 04:32
15. Midnight Confession (1989 Single Version) 03:58

"Cue"
REM GENRE "Thrash Metal"
REM DATE 2015
REM DISCID D80D690F
REM COMMENT "ExactAudioCopy v0.99pb5"
PERFORMER "Fuck Off"
TITLE "Hell On Earth II (Revisited & Faster)"
FILE "Fuck Off - Hell On Earth II (Revisited & Faster).flac" WAVE
TRACK 01 AUDIO
TITLE "Hell On Earth"
PERFORMER "Fuck Off"
INDEX 01 00:00:00
TRACK 02 AUDIO
TITLE "Blasphemy"
PERFORMER "Fuck Off"
INDEX 01 04:02:36
TRACK 03 AUDIO
TITLE "Whom You Have Never To Say His Name"
PERFORMER "Fuck Off"
INDEX 01 08:12:46
TRACK 04 AUDIO
TITLE "Rider From Hell"
PERFORMER "Fuck Off"
INDEX 01 10:35:67
TRACK 05 AUDIO
TITLE "Embraced by Religion"
PERFORMER "Fuck Off"
INDEX 01 15:19:14
TRACK 06 AUDIO
TITLE "Witch, Hell Below the Belly"
PERFORMER "Fuck Off"
INDEX 01 17:36:69
TRACK 07 AUDIO
TITLE "Midnight Confession"
PERFORMER "Fuck Off"
INDEX 01 21:47:34
TRACK 08 AUDIO
TITLE "Torquemada (2000 Invasion - Demo)"
PERFORMER "Fuck Off"
INDEX 01 25:03:26
TRACK 09 AUDIO
TITLE "Cyclone Pt. IV (2000 Invasion - Demo)"
PERFORMER "Fuck Off"
INDEX 01 29:07:05
TRACK 10 AUDIO
TITLE "Hell On Earth (2013 Long Version)"
PERFORMER "Fuck Off"
INDEX 01 30:07:59
TRACK 11 AUDIO
TITLE "Midnight Confession (2013 Long Version)"
PERFORMER "Fuck Off"
INDEX 01 35:11:08
TRACK 12 AUDIO
TITLE "Embrion, Witch Below the Belly (1989 Single Version 1989)"
PERFORMER "Fuck Off"
INDEX 01 39:45:15
TRACK 13 AUDIO
TITLE "Inquisición (1989 Single Version)"
PERFORMER "Fuck Off"
INDEX 01 45:33:43
TRACK 14 AUDIO
TITLE "Hell On Earth (1989 Single Version)"
PERFORMER "Fuck Off"
INDEX 01 48:43:24
TRACK 15 AUDIO
TITLE "Midnight Confession (1989 Single Version)"
PERFORMER "Fuck Off"
INDEX 01 53:15:59

"Log"
Exact Audio Copy V0.99 prebeta 5 from 4. May 2009

Отчёт EAC об извлечении, выполненном 14. апреля 2015, 12:12

Fuck Off / Hell On Earth II (Revisited & Faster)

Дисковод: MATSHITADVD-RAM UJ8A0AS Adapter: 0 ID: 1

Режим чтения : Достоверность
Использование точного потока : Да
Отключение кэша аудио : Да
Использование указателей C2 : Нет

Коррекция смещения при чтении : 102
Способность читать области Lead-in и Lead-out : Нет
Заполнение пропущенных сэмплов тишиной : Да
Удаление блоков с тишиной в начале и конце : Нет
При вычислениях CRC использовались нулевые сэмплы : Да
Интерфейс : Встроенный Win32-интерфейс для Win NT/2000

Выходной формат : Пользовательский кодировщик
Выбранный битрейт : 1024 kBit/s
Качество : Высокий
Добавление ID3-тэга : Нет
Утилита сжатия : C:\Program Files\Exact Audio Copy\FLAC\FLAC.EXE
Дополнительные параметры : -6 -V -T "ARTIST=%a" -T "TITLE=%t" -T "ALBUM=%g" -T "DATE=%y" -T "TRACKNUMBER=%n" -T "GENRE=%m" -T "COMMENT=%e" %s -o %d


TOC извлечённого CD

Трек | Старт | Длительность | Начальный сектор | Конечный сектор
---------------------------------------------------------------------
1 | 0:00.00 | 4:02.36 | 0 | 18185
2 | 4:02.36 | 4:10.10 | 18186 | 36945
3 | 8:12.46 | 2:23.21 | 36946 | 47691
4 | 10:35.67 | 4:43.22 | 47692 | 68938
5 | 15:19.14 | 2:17.55 | 68939 | 79268
6 | 17:36.69 | 4:10.40 | 79269 | 98058
7 | 21:47.34 | 3:15.67 | 98059 | 112750
8 | 25:03.26 | 4:03.54 | 112751 | 131029
9 | 29:07.05 | 1:00.54 | 131030 | 135583
10 | 30:07.59 | 5:03.24 | 135584 | 158332
11 | 35:11.08 | 4:34.07 | 158333 | 178889
12 | 39:45.15 | 5:48.28 | 178890 | 205017
13 | 45:33.43 | 3:09.56 | 205018 | 219248
14 | 48:43.24 | 4:32.35 | 219249 | 239683
15 | 53:15.59 | 3:58.12 | 239684 | 257545


Характеристики диапазона извлечения и сообщения об ошибках

Выбранный диапазон

Имя файла C:\Users\эксперт\Music\Fuck Off - Hell On Earth II (Revisited & Faster).wav

Пиковый уровень 100.0 %
Качество диапазона 100.0 %
CRC копии FB7A3A52
Копирование... OK

Ошибок не произошло


AccurateRip: сводка

Трек 1 нет в базе данных
Трек 2 нет в базе данных
Трек 3 нет в базе данных
Трек 4 нет в базе данных
Трек 5 нет в базе данных
Трек 6 нет в базе данных
Трек 7 нет в базе данных
Трек 8 нет в базе данных
Трек 9 нет в базе данных
Трек 10 нет в базе данных
Трек 11 нет в базе данных
Трек 12 нет в базе данных
Трек 13 нет в базе данных
Трек 14 нет в базе данных
Трек 15 нет в базе данных

Ни одного трека нет в базе AccurateRip

Конец отчёта


Hell On Earth II (Revisited & Faster)


Top
 Profile  
 
 
PostPosted: 18 Sep 2015 
Прокъмитолист
User avatar
Joined: 12 Aug 2007
Posts: 6652
Lоcаtion: Санктъ-Петербуркъ
Age: 52
Name: Олекъ
:thanx:

_________________
прокъметол - это музыко, от которово есть прок (ы)


Top
 Profile  
 
 
PostPosted: 18 Sep 2015 
Я набрал 1000 сообщений!
Joined: 09 Jul 2008
Posts: 3144
Age: 46
Name: Сергей
классика не впечатлила, но очень понравилось новье


Top
 Profile  
 
Display posts from previous:  Sort by  
Post new topic Reply to topic  [ 3 posts ] 

All times are UTC + 3 hours


Who is online

Users browsing this forum: No registered users and 1 guest


You cannot post new topics in this forum
You cannot reply to topics in this forum
You cannot edit your posts in this forum
You cannot delete your posts in this forum
You cannot post attachments in this forum

Search for:
Яндекс.Метрика
Powered by phpBB © 2000, 2002, 2005, 2007 phpBB Group