\m/ 80's metal \m/

Информационно-аналитический форум "80 см пыли" (In Search We Trust) "У нас никто никуда не спешит"
Me For You - http://me-4u.com
It is currently 13 Dec 2019

All times are UTC + 3 hours

Spoiler
Chat - temporary registration for foreign users (please leave your application here)







Post new topic Reply to topic  [ 69 posts ]  Go to page Previous  1, 2, 3, 4  Next
Author Message
 
PostPosted: 15 Jun 2016 
Генеральный thrasher
User avatar
Joined: 03 Oct 2008
Posts: 3743
Lоcаtion: Ханты-Мансийский АО
Age: 44
Name: Сергей
Завтра залью лосишку,которую Саня обещал...


Top
 Profile  
 
 
PostPosted: 15 Jun 2016 
Хиппей (support team)
User avatar
Joined: 30 Jul 2007
Posts: 116105
Lоcаtion: Киев (Kyiv, UA)
Age: 46
Name: Andrey
Уря, заранее уряяя :dance:

_________________


Top
 Profile E-mail  
 
 
PostPosted: 16 Jun 2016 
Генеральный thrasher
User avatar
Joined: 03 Oct 2008
Posts: 3743
Lоcаtion: Ханты-Мансийский АО
Age: 44
Name: Сергей
Image

Year:1988,1990,1992 (2014 Re-Issue)
Style:Thrash Metal
Country:Denmark
Archive:Flac+Cue+Log+Scans
Size:316Mb+343Mb
Source:my CD
Label:GS Productions

Primal Touch LP:
01. Born of the Flag 05:27
02. Adult Lust 05:06
03. Kick Ass 05:32
04. Slam the Fays 05:55
05. White Slavery 04:39
06. Ridin' with Sioux 03:50
07. Liquid Materia 05:07
08. In Your Dreams 06:27

Tempora Mutantur/Profit Counts (demos):
01. The Trinitytest 04:29
02. Brainstorm 03:27
03. R.F.F. 03:46
04. Thrash Yer Guts Out 05:27
05. Prepare Retailiation 04:52
06. Fast N' Furious 05:15
07. Taking Over 05:03
08. Scumbags 04:08
09. Muslim Aggression 04:32
10. Chaotic Thoughts 05:41

"Cue 1"
REM GENRE "Thrash Metal"
REM DATE 1992
REM DISCID 6E09D608
REM COMMENT "ExactAudioCopy v1.1"
PERFORMER "Furious Trauma"
TITLE "Primal Touch"
FILE "Furious Trauma - Primal Touch.flac" WAVE
TRACK 01 AUDIO
TITLE "Born of the Flag"
PERFORMER "Furious Trauma"
INDEX 01 00:00:00
TRACK 02 AUDIO
TITLE "Adult Lust"
PERFORMER "Furious Trauma"
INDEX 01 05:26:07
TRACK 03 AUDIO
TITLE "Kick Ass"
PERFORMER "Furious Trauma"
INDEX 01 10:31:62
TRACK 04 AUDIO
TITLE "Slam the Fays"
PERFORMER "Furious Trauma"
INDEX 01 16:03:37
TRACK 05 AUDIO
TITLE "White Slavery"
PERFORMER "Furious Trauma"
INDEX 01 21:57:50
TRACK 06 AUDIO
TITLE "Ridin' with Sioux"
PERFORMER "Furious Trauma"
INDEX 01 26:35:52
TRACK 07 AUDIO
TITLE "Liquid Materia"
PERFORMER "Furious Trauma"
INDEX 01 30:25:32
TRACK 08 AUDIO
TITLE "In Your Dreams"
PERFORMER "Furious Trauma"
INDEX 01 35:31:50

"Cue 2"
REM GENRE "Thrash Metal"
REM DATE 2014
REM DISCID 8D0B0E0B
REM COMMENT "ExactAudioCopy v1.1"
PERFORMER "Furious Trauma "
TITLE "Tempora Mutantur/Profit Counts"
FILE "Furious Trauma - Tempora Mutantur,Profit Counts.flac" WAVE
TRACK 01 AUDIO
TITLE "The Trinity Test"
PERFORMER "Furious Trauma "
INDEX 01 00:00:00
TRACK 02 AUDIO
TITLE "Brainstorm"
PERFORMER "Furious Trauma "
INDEX 01 04:28:06
TRACK 03 AUDIO
TITLE "R.F.F."
PERFORMER "Furious Trauma "
INDEX 01 07:54:44
TRACK 04 AUDIO
TITLE "Thrash Yer Guts Out"
PERFORMER "Furious Trauma "
INDEX 01 11:39:74
TRACK 05 AUDIO
TITLE "Prepare Retailiation"
PERFORMER "Furious Trauma "
INDEX 01 17:06:74
TRACK 06 AUDIO
TITLE "Fast N' Furious"
PERFORMER "Furious Trauma "
INDEX 01 21:58:18
TRACK 07 AUDIO
TITLE "Taking Over"
PERFORMER "Furious Trauma "
INDEX 01 27:12:31
TRACK 08 AUDIO
TITLE "Scumbags"
PERFORMER "Furious Trauma "
INDEX 01 32:14:63
TRACK 09 AUDIO
TITLE "Muslim Aggression"
PERFORMER "Furious Trauma "
INDEX 01 36:22:41
TRACK 10 AUDIO
TITLE "Chaotic Thoughts"
PERFORMER "Furious Trauma "
INDEX 01 40:53:47
TRACK 11 AUDIO
TITLE "Трек11"
PERFORMER "Furious Trauma "
INDEX 01 46:34:24

"Log 1"
Exact Audio Copy V1.1 from 23. June 2015

Отчёт EAC об извлечении, выполненном 15. декабря 2015, 10:17

Furious Trauma / Primal Touch

Дисковод: HL-DT-STDVDRAM GTA0N Adapter: 1 ID: 0

Режим чтения : Достоверность
Использование точного потока : Да
Отключение кэша аудио : Да
Использование указателей C2 : Нет

Коррекция смещения при чтении : 102
Способность читать области Lead-in и Lead-out : Нет
Заполнение пропущенных сэмплов тишиной : Да
Удаление блоков с тишиной в начале и конце : Нет
При вычислениях CRC использовались нулевые сэмплы : Да
Интерфейс : Встроенный Win32-интерфейс для Win NT/2000

Выходной формат : Пользовательский кодировщик
Выбранный битрейт : 768 kBit/s
Качество : Высокий
Добавление ID3-тега : Нет
Утилита сжатия : C:\Program Files (x86)\Exact Audio Copy\FLAC\FLAC.EXE
Дополнительные параметры : -6 -V -T "ARTIST=%artist%" -T "TITLE=%title%" -T "ALBUM=%albumtitle%" -T "DATE=%year%" -T "TRACKNUMBER=%tracknr%" -T "GENRE=%genre%" -T "COMMENT=%comment%" -T "BAND=%albuminterpret%" -T "ALBUMARTIST=%albuminterpret%" -T "COMPOSER=%composer%" %haslyrics%--tag-from-file=LYRICS="%lyricsfile%"%haslyrics% -T "DISCNUMBER=%cdnumber%" -T "TOTALDISCS=%totalcds%" -T "TOTALTRACKS=%numtracks%" %hascover%--picture="%coverfile%"%hascover% %source% -o %dest%


TOC извлечённого CD

Трек | Старт | Длительность | Начальный сектор | Конечный сектор
---------------------------------------------------------------------
1 | 0:00.00 | 5:26.07 | 0 | 24456
2 | 5:26.07 | 5:05.55 | 24457 | 47386
3 | 10:31.62 | 5:31.50 | 47387 | 72261
4 | 16:03.37 | 5:54.13 | 72262 | 98824
5 | 21:57.50 | 4:38.02 | 98825 | 119676
6 | 26:35.52 | 3:49.55 | 119677 | 136906
7 | 30:25.32 | 5:06.18 | 136907 | 159874
8 | 35:31.50 | 6:26.70 | 159875 | 188894


Характеристики диапазона извлечения и сообщения об ошибках

Выбранный диапазон

Имя файла C:\Users\магазин\Music\Furious Trauma - Primal Touch.wav

Пиковый уровень 99.9 %
Скорость извлечения 1.9 X
Качество диапазона 100.0 %
CRC копии AA159F9F
Копирование... OK

Ошибок не произошло


AccurateRip: сводка

Трек 1 точность не определена (достоверность 1) [1BA6135B], AccurateRip вернул [291E6BE3] (AR v2)
Трек 2 точность не определена (достоверность 1) [1748FF8C], AccurateRip вернул [6283EC75] (AR v2)
Трек 3 точность не определена (достоверность 1) [97179C67], AccurateRip вернул [2420C24E] (AR v2)
Трек 4 точность не определена (достоверность 1) [372205A7], AccurateRip вернул [842587D7] (AR v2)
Трек 5 точность не определена (достоверность 1) [0D183B1E], AccurateRip вернул [FAAA4BEF] (AR v2)
Трек 6 точность не определена (достоверность 1) [66133264], AccurateRip вернул [D4F88480] (AR v2)
Трек 7 точность не определена (достоверность 1) [5CB9AB99], AccurateRip вернул [EF765220] (AR v2)
Трек 8 точность не определена (достоверность 2) [5FB55ABF], AccurateRip вернул [4FC749EA] (AR v2)

Ни один трек не прошёл проверки на точность
В вашей базе может быть иной вариант штамповки диска

Конец отчёта

---- CUETools DB Plugin V2.1.6

[CTDB TOCID: 27QYtc0xTJ.A2KigZv_chdbrJoA-] found
Submit result: 27QYtc0xTJ.A2KigZv_chdbrJoA- has been confirmed
Track | CTDB Status
1 | (1/1) Accurately ripped
2 | (1/1) Accurately ripped
3 | (1/1) Accurately ripped
4 | (1/1) Accurately ripped
5 | (1/1) Accurately ripped
6 | (1/1) Accurately ripped
7 | (1/1) Accurately ripped
8 | (1/1) Accurately ripped

"Log 2"
Exact Audio Copy V1.1 from 23. June 2015

Отчёт EAC об извлечении, выполненном 15. декабря 2015, 10:46

Furious Trauma / Tempora Mutantur/Profit Counts

Дисковод: HL-DT-STDVDRAM GTA0N Adapter: 1 ID: 0

Режим чтения : Достоверность
Использование точного потока : Да
Отключение кэша аудио : Да
Использование указателей C2 : Нет

Коррекция смещения при чтении : 102
Способность читать области Lead-in и Lead-out : Нет
Заполнение пропущенных сэмплов тишиной : Да
Удаление блоков с тишиной в начале и конце : Нет
При вычислениях CRC использовались нулевые сэмплы : Да
Интерфейс : Встроенный Win32-интерфейс для Win NT/2000

Выходной формат : Пользовательский кодировщик
Выбранный битрейт : 768 kBit/s
Качество : Высокий
Добавление ID3-тега : Нет
Утилита сжатия : C:\Program Files (x86)\Exact Audio Copy\FLAC\FLAC.EXE
Дополнительные параметры : -6 -V -T "ARTIST=%artist%" -T "TITLE=%title%" -T "ALBUM=%albumtitle%" -T "DATE=%year%" -T "TRACKNUMBER=%tracknr%" -T "GENRE=%genre%" -T "COMMENT=%comment%" -T "BAND=%albuminterpret%" -T "ALBUMARTIST=%albuminterpret%" -T "COMPOSER=%composer%" %haslyrics%--tag-from-file=LYRICS="%lyricsfile%"%haslyrics% -T "DISCNUMBER=%cdnumber%" -T "TOTALDISCS=%totalcds%" -T "TOTALTRACKS=%numtracks%" %hascover%--picture="%coverfile%"%hascover% %source% -o %dest%


TOC извлечённого CD

Трек | Старт | Длительность | Начальный сектор | Конечный сектор
---------------------------------------------------------------------
1 | 0:00.00 | 4:28.06 | 0 | 20105
2 | 4:28.06 | 3:26.38 | 20106 | 35593
3 | 7:54.44 | 3:45.30 | 35594 | 52498
4 | 11:39.74 | 5:27.00 | 52499 | 77023
5 | 17:06.74 | 4:51.19 | 77024 | 98867
6 | 21:58.18 | 5:14.13 | 98868 | 122430
7 | 27:12.31 | 5:02.32 | 122431 | 145112
8 | 32:14.63 | 4:07.53 | 145113 | 163690
9 | 36:22.41 | 4:31.06 | 163691 | 184021
10 | 40:53.47 | 5:40.52 | 184022 | 209573
11 | 46:34.24 | 0:36.04 | 209574 | 212277


Характеристики диапазона извлечения и сообщения об ошибках

Выбранный диапазон

Имя файла C:\Users\магазин\Music\Furious Trauma - Tempora Mutantur,Profit Counts.wav

Пиковый уровень 100.0 %
Скорость извлечения 2.0 X
Качество диапазона 100.0 %
CRC копии 3C19F548
Копирование... OK

Ошибок не произошло


AccurateRip: сводка

Трек 1 отсутствует в базе данных
Трек 2 отсутствует в базе данных
Трек 3 отсутствует в базе данных
Трек 4 отсутствует в базе данных
Трек 5 отсутствует в базе данных
Трек 6 отсутствует в базе данных
Трек 7 отсутствует в базе данных
Трек 8 отсутствует в базе данных
Трек 9 отсутствует в базе данных
Трек 10 отсутствует в базе данных
Трек 11 отсутствует в базе данных

Ни одного трека нет в базе AccurateRip

Конец отчёта

---- CUETools DB Plugin V2.1.6

[CTDB TOCID: VXgTNjThEBnTnis0kUEODYPYRHA-] found
Submit result: VXgTNjThEBnTnis0kUEODYPYRHA- has been confirmed
Track | CTDB Status
1 | (1/1) Accurately ripped
2 | (1/1) Accurately ripped
3 | (1/1) Accurately ripped
4 | (1/1) Accurately ripped
5 | (1/1) Accurately ripped
6 | (1/1) Accurately ripped
7 | (1/1) Accurately ripped
8 | (1/1) Accurately ripped
9 | (1/1) Accurately ripped
10 | (1/1) Accurately ripped
11 | (1/1) Accurately ripped


Primal Touch

Demos 1988-1990


Top
 Profile  
 
 
PostPosted: 16 Jun 2016 
Прокъмитолист
User avatar
Joined: 12 Aug 2007
Posts: 6652
Lоcаtion: Санктъ-Петербуркъ
Age: 52
Name: Олекъ
:thanx:

_________________
прокъметол - это музыко, от которово есть прок (ы)


Top
 Profile  
 
 
PostPosted: 17 Jun 2016 
Хиппей (support team)
User avatar
Joined: 30 Jul 2007
Posts: 116105
Lоcаtion: Киев (Kyiv, UA)
Age: 46
Name: Andrey
Серёг, спасибо :thanx:

_________________


Top
 Profile E-mail  
 
 
PostPosted: 17 Jun 2016 
консэрваторъ
User avatar
Joined: 11 Aug 2007
Posts: 17501
Lоcаtion: Псков
Age: 45
Name: Сергей
Still looking:?? :scratch:

_________________
THRASH 'EM ALL


Top
 Profile E-mail  
 
 
PostPosted: 16 Jul 2016 
Персональный статус
User avatar
Joined: 10 Jun 2009
Posts: 395
Name: jose gomes
:thanx:


Top
 Profile E-mail  
 
 
PostPosted: 17 Jul 2016 
Хиппей (support team)
User avatar
Joined: 30 Jul 2007
Posts: 116105
Lоcаtion: Киев (Kyiv, UA)
Age: 46
Name: Andrey
Still looking:?? :scratch:

А хрен его знает, товарищ майор (с) :vic:
Вроде всё нашли. Снимаем рекса :kro:

_________________


Top
 Profile E-mail  
 
 
PostPosted: 17 Jul 2016 
консэрваторъ
User avatar
Joined: 11 Aug 2007
Posts: 17501
Lоcаtion: Псков
Age: 45
Name: Сергей
Не, а правда, Санёк живой, или где?..

_________________
THRASH 'EM ALL


Top
 Profile E-mail  
 
 
PostPosted: 17 Jul 2016 
Хиппей (support team)
User avatar
Joined: 30 Jul 2007
Posts: 116105
Lоcаtion: Киев (Kyiv, UA)
Age: 46
Name: Andrey
Не, а правда, Санёк живой, или где?..

Дык, малой же ж на каникулах же ж :kro:

_________________


Top
 Profile E-mail  
 
 
PostPosted: 17 Jul 2016 
Хиппей (support team)
User avatar
Joined: 30 Jul 2007
Posts: 116105
Lоcаtion: Киев (Kyiv, UA)
Age: 46
Name: Andrey
thorbeorn wrote:
Demos 1988-1990

Вот это самый ништяк оказался :thanx: :true: :true: :true:
Особенно поросячи визги вокалиста :lob: :lob: :lob:

Дальше можно группу не слушал :fingal:

_________________


Top
 Profile E-mail  
 
 
PostPosted: 17 Jul 2016 
Хиппей (support team)
User avatar
Joined: 30 Jul 2007
Posts: 116105
Lоcаtion: Киев (Kyiv, UA)
Age: 46
Name: Andrey
Furious Trauma - Primal Touch.rar

mirror: iFolder l Narod l M-Cloud

Furious Trauma - Tempora Mutantur, Profit Counts.rar

mirror: iFolder l Naod l M-Cloud

_________________


Top
 Profile E-mail  
 
 
PostPosted: 28 Sep 2016 
Трешер
User avatar
Joined: 25 Feb 2011
Posts: 1174
Lоcаtion: Харьков
Age: 43
Name: Aleksandr
Я вернулся :dance: давненько меня не было


Top
 Profile E-mail  
 
 
PostPosted: 28 Sep 2016 
консэрваторъ
User avatar
Joined: 11 Aug 2007
Posts: 17501
Lоcаtion: Псков
Age: 45
Name: Сергей
Привет, Саш, да, пропал ты совсем... Понаблюдаю, так ли тебе надо было то, что ты искал, когда-то... А что это было, извиняй, сам... :pardon:

_________________
THRASH 'EM ALL


Top
 Profile E-mail  
 
 
PostPosted: 29 Sep 2016 
Трешер
User avatar
Joined: 25 Feb 2011
Posts: 1174
Lоcаtion: Харьков
Age: 43
Name: Aleksandr
Да так долго я еще не отлучался , не до музыки было если честно


Top
 Profile E-mail  
 
 
PostPosted: 29 Sep 2016 
Хиппей (support team)
User avatar
Joined: 30 Jul 2007
Posts: 116105
Lоcаtion: Киев (Kyiv, UA)
Age: 46
Name: Andrey
Я вернулся :dance: давненько меня не было

Занятно. "Ты" появился и в чате за сутки до того, как на форуме :shok: :crazy:

_________________


Top
 Profile E-mail  
 
 
PostPosted: 29 Sep 2016 
Хиппей (support team)
User avatar
Joined: 30 Jul 2007
Posts: 116105
Lоcаtion: Киев (Kyiv, UA)
Age: 46
Name: Andrey
Да так долго я еще не отлучался , не до музыки было если честно

Плохое что-то было?..

_________________


Top
 Profile E-mail  
 
 
PostPosted: 29 Sep 2016 
Трешер
User avatar
Joined: 25 Feb 2011
Posts: 1174
Lоcаtion: Харьков
Age: 43
Name: Aleksandr
В чат не заходил вообще :shok: да так хорошего мало.

Вот сейчас зайду , что там такое то :vic:
А ну я и не сомневался :( этот дурачек все в том же духе


Top
 Profile E-mail  
 
 
PostPosted: 29 Sep 2016 
Трешер
User avatar
Joined: 25 Feb 2011
Posts: 1174
Lоcаtion: Харьков
Age: 43
Name: Aleksandr
Так а этот не нашли -Furious Trauma - 1996 - Strange Ways (EP)


Top
 Profile E-mail  
 
 
PostPosted: 29 Sep 2016 
Хиппей (support team)
User avatar
Joined: 30 Jul 2007
Posts: 116105
Lоcаtion: Киев (Kyiv, UA)
Age: 46
Name: Andrey
glloomerxe wrote:
да так хорошего мало.

А плохого то чего?
glloomerxe wrote:
Так а этот не нашли -Furious Trauma - 1996 - Strange Ways (EP)

Да? :nose: А он точно нужен?

_________________


Top
 Profile E-mail  
 
Display posts from previous:  Sort by  
Post new topic Reply to topic  [ 69 posts ]  Go to page Previous  1, 2, 3, 4  Next

All times are UTC + 3 hours


Who is online

Users browsing this forum: No registered users and 1 guest


You cannot post new topics in this forum
You cannot reply to topics in this forum
You cannot edit your posts in this forum
You cannot delete your posts in this forum
You cannot post attachments in this forum

Search for:
Яндекс.Метрика
Powered by phpBB © 2000, 2002, 2005, 2007 phpBB Group