\m/ 80's metal \m/

Информационно-аналитический форум "80 см пыли" (In Search We Trust) "У нас никто никуда не спешит"
Me For You - http://me-4u.com
It is currently 12 Dec 2019

All times are UTC + 3 hours

Spoiler
Chat - temporary registration for foreign users (please leave your application here)







Post new topic Reply to topic  [ 7 posts ] 
Author Message
 
PostPosted: 21 Nov 2012 
Работнечег
User avatar
Joined: 28 Aug 2007
Posts: 6086
Lоcаtion: г. Москва
Age: 30
Name: Дима
Image

Year: 1990
Label: Lux Noise Records
Country: Switherland
Style: Hard Rock, Heavy Metal, Glam Rock (?)
Format: Flac + Cue + Log + Covers/MP3@320 + Covers
Size: 371 Mb / 135 Mb

Line-Up:
H.P. - Guitars
Gasny - Bass
Olaf - Drums
Thomas - Vocals


Tracklist:
1. Highway Of Love 04:05
2. My Soul's On Fire 04:30
3. I'm Evil 03:59
4. Lonesome Blues 04:29
5. Nite Of The Living Dead 03:36
6. Lil' Dead Sweetheart 04:37
7. Life's Short (And Then You Die) 05:28
8. Don't Care 'bout Ya 04:52
9. Black Magic Woman 04:46
10. Dead End 07:32
11. Nobody Knows 04:49
12. Deuce (Kiss Cover) 02:15

LOG
Exact Audio Copy V0.99 prebeta 5 from 4. May 2009

EAC extraction logfile from 4. November 2012, 11:35

Fun Gogh / Cut Of Your Ear

Used drive : PIONEER DVD-RW DVR-116D Adapter: 0 ID: 0

Read mode : Secure
Utilize accurate stream : Yes
Defeat audio cache : Yes
Make use of C2 pointers : No

Read offset correction : 96
Overread into Lead-In and Lead-Out : No
Fill up missing offset samples with silence : Yes
Delete leading and trailing silent blocks : No
Null samples used in CRC calculations : Yes
Used interface : Native Win32 interface for Win NT & 2000

Used output format : User Defined Encoder
Selected bitrate : 32 kBit/s
Quality : High
Add ID3 tag : No
Command line compressor : C:\Program Files\Exact Audio Copy\Flac\flac.exe
Additional command line options : -6 -V %s


TOC of the extracted CD

Track | Start | Length | Start sector | End sector
---------------------------------------------------------
1 | 0:00.00 | 4:05.12 | 0 | 18386
2 | 4:05.12 | 4:30.28 | 18387 | 38664
3 | 8:35.40 | 3:59.15 | 38665 | 56604
4 | 12:34.55 | 4:28.70 | 56605 | 76774
5 | 17:03.50 | 3:35.62 | 76775 | 92961
6 | 20:39.37 | 4:37.18 | 92962 | 113754
7 | 25:16.55 | 5:28.10 | 113755 | 138364
8 | 30:44.65 | 4:52.30 | 138365 | 160294
9 | 35:37.20 | 4:46.25 | 160295 | 181769
10 | 40:23.45 | 7:32.05 | 181770 | 215674
11 | 47:55.50 | 4:48.67 | 215675 | 237341
12 | 52:44.42 | 2:15.18 | 237342 | 247484


Range status and errors

Selected range

Filename D:\Музыка\Lossless\Fun Gogh - Cut Off Your Ear (1990) flac\Fun Gogh - Cut Of Your Ear.wav

Peak level 100.0 %
Range quality 100.0 %
Copy CRC AE989277
Copy OK

No errors occurred


AccurateRip summary

Track 1 not present in database
Track 2 not present in database
Track 3 not present in database
Track 4 not present in database
Track 5 not present in database
Track 6 not present in database
Track 7 not present in database
Track 8 not present in database
Track 9 not present in database
Track 10 not present in database
Track 11 not present in database
Track 12 not present in database

None of the tracks are present in the AccurateRip database

End of status report

CUE
REM GENRE Rock
REM DATE 1990
REM DISCID A40CE30C
REM COMMENT "ExactAudioCopy v0.99pb5"
PERFORMER "Fun Gogh"
TITLE "Cut Of Your Ear"
FILE "Fun Gogh - Cut Of Your Ear.flac" WAVE
TRACK 01 AUDIO
TITLE "Highway Of Love"
PERFORMER "Fun Gogh"
INDEX 01 00:00:00
TRACK 02 AUDIO
TITLE "My Soul's On Fire"
PERFORMER "Fun Gogh"
INDEX 01 04:05:12
TRACK 03 AUDIO
TITLE "I'm Evil"
PERFORMER "Fun Gogh"
INDEX 01 08:35:40
TRACK 04 AUDIO
TITLE "Lonesome Blues"
PERFORMER "Fun Gogh"
INDEX 01 12:34:55
TRACK 05 AUDIO
TITLE "Nite Of The Living Dead"
PERFORMER "Fun Gogh"
INDEX 01 17:03:50
TRACK 06 AUDIO
TITLE "Lil' Dead Sweetheart"
PERFORMER "Fun Gogh"
INDEX 01 20:39:37
TRACK 07 AUDIO
TITLE "Life's Short (And Then You Die)"
PERFORMER "Fun Gogh"
INDEX 00 25:15:50
INDEX 01 25:16:55
TRACK 08 AUDIO
TITLE "Don't Care 'Bout Ya"
PERFORMER "Fun Gogh"
INDEX 01 30:44:65
TRACK 09 AUDIO
TITLE "Black Magic Woman"
PERFORMER "Fun Gogh"
INDEX 01 35:37:20
TRACK 10 AUDIO
TITLE "Dead End"
PERFORMER "Fun Gogh"
INDEX 01 40:23:45
TRACK 11 AUDIO
TITLE "Nobody Knows"
PERFORMER "Fun Gogh"
INDEX 00 47:54:37
INDEX 01 47:55:50
TRACK 12 AUDIO
TITLE "Deuce"
PERFORMER "Fun Gogh"
INDEX 01 52:44:42


FLAC
MP3@320

За предоставленный диск спасибо Сашке spryt777! Понравился альбомчик, хоть и понамешано тут))


Top
 Profile E-mail  
 
 
PostPosted: 21 Nov 2012 
Доктор энтомологии
User avatar
Joined: 22 Jan 2009
Posts: 9980
Lоcаtion: Даугавпилс
Age: 44
Name: Алексей
Спасибо за мп3, ознакомимся :thanx:


Top
 Profile  
 
 
PostPosted: 23 Nov 2012 
Персональный статус
User avatar
Joined: 22 Oct 2011
Posts: 352
Lоcаtion: Moscow
Age: 61
Name: Серёжа
:thanx:


Top
 Profile E-mail  
 
 
PostPosted: 25 Nov 2012 
Alive Again
User avatar
Joined: 17 Dec 2008
Posts: 4750
Lоcаtion: Курск Воронеж Оскол
Age: 45
Name: Дмитрий
:thanx:


Top
 Profile E-mail  
 
 
PostPosted: 31 Jul 2013 
Хиппей (support team)
User avatar
Joined: 30 Jul 2007
Posts: 116095
Lоcаtion: Киев (Kyiv, UA)
Age: 46
Name: Andrey
:thanx:

Прям с меня вчерашнего облогу рисовали :shok:

mirror: F-Bit l Narod

_________________


Top
 Profile E-mail  
 
 
PostPosted: 31 Jul 2013 
Работнечег
User avatar
Joined: 28 Aug 2007
Posts: 6086
Lоcаtion: г. Москва
Age: 30
Name: Дима
:crazy:


Top
 Profile E-mail  
 
 
PostPosted: 01 Aug 2013 
Хиппей (support team)
User avatar
Joined: 30 Jul 2007
Posts: 116095
Lоcаtion: Киев (Kyiv, UA)
Age: 46
Name: Andrey
А вот и отличный задорный альбом в стиле Psychobilly Heavy Metal :true:
Понятно, что группа пародийная и несерьезная, но и тем и завораживает :meloman:

6+/10

Хочу еще таких и побольше.

_________________


Top
 Profile E-mail  
 
Display posts from previous:  Sort by  
Post new topic Reply to topic  [ 7 posts ] 

All times are UTC + 3 hours


Who is online

Users browsing this forum: No registered users and 1 guest


You cannot post new topics in this forum
You cannot reply to topics in this forum
You cannot edit your posts in this forum
You cannot delete your posts in this forum
You cannot post attachments in this forum

Search for:
Яндекс.Метрика
Powered by phpBB © 2000, 2002, 2005, 2007 phpBB Group