\m/ 80's metal \m/

Информационно-аналитический форум "80 см пыли" (In Search We Trust) "У нас никто никуда не спешит"
Me For You - http://me-4u.com
It is currently 10 Dec 2019

All times are UTC + 3 hours

Spoiler
Chat - temporary registration for foreign users (please leave your application here)







Post new topic Reply to topic  [ 9 posts ] 
Author Message
 
PostPosted: 03 Jan 2012 
Работнечег
User avatar
Joined: 28 Aug 2007
Posts: 6086
Lоcаtion: г. Москва
Age: 30
Name: Дима
Attachment:
Front.jpg
Front.jpg [ 788.69 KiB | Viewed 171 times ]


Year: 2005
Label: self-released
Country: UK
Style: Heavy Metal
Format: Flac + Cue + Log + Covers
Size: 297 Mb

Line-Up:
Kev Graham - Bass, Vocals
Ian Toomey - Guitar (Bitches Sin)
Pete Toomey - Guitar (Bitches Sin)
Steve Turton - Drums (Bitches Sin)
Frank Quegan - Vocals (ex-Bitches Sin)


Tracklist:
1. All My Love 04:15
2. Can't Take It No More 04:42
3. Cruisin' 04:31
4. Casio Blanca 02:11
5. Lazer Love 03:47
6. She's All Gone 02:37
7. The Web 03:38
8. Tsukiatari 03:39
9. Lookin' for Answers (Live) 03:48
10. Grand Prix (Live) 05:50

LOG
Exact Audio Copy V0.99 prebeta 5 from 4. May 2009

EAC extraction logfile from 30. November 2011, 21:56

Flashpoint / Lazer Love

Used drive : PIONEER DVD-RW DVR-116D Adapter: 0 ID: 0

Read mode : Secure
Utilize accurate stream : Yes
Defeat audio cache : Yes
Make use of C2 pointers : No

Read offset correction : 96
Overread into Lead-In and Lead-Out : No
Fill up missing offset samples with silence : Yes
Delete leading and trailing silent blocks : No
Null samples used in CRC calculations : Yes
Used interface : Native Win32 interface for Win NT & 2000

Used output format : User Defined Encoder
Selected bitrate : 32 kBit/s
Quality : High
Add ID3 tag : No
Command line compressor : C:\Program Files\Exact Audio Copy\Flac\flac.exe
Additional command line options : -6 -V %s


TOC of the extracted CD

Track | Start | Length | Start sector | End sector
---------------------------------------------------------
1 | 0:00.00 | 4:17.45 | 0 | 19319
2 | 4:17.45 | 4:48.51 | 19320 | 40970
3 | 9:06.21 | 4:36.72 | 40971 | 61742
4 | 13:43.18 | 2:17.61 | 61743 | 72078
5 | 16:01.04 | 3:50.67 | 72079 | 89395
6 | 19:51.71 | 2:41.00 | 89396 | 101470
7 | 22:32.71 | 3:42.00 | 101471 | 118120
8 | 26:14.71 | 3:40.70 | 118121 | 134690
9 | 29:55.66 | 3:52.00 | 134691 | 152090
10 | 33:47.66 | 5:50.00 | 152091 | 178340


Range status and errors

Selected range

Filename D:\Музыка\Lossless\Flash Point - Lazer Love (2005)\Flashpoint - Lazer Love.wav

Peak level 100.0 %
Range quality 100.0 %
Copy CRC A3C94532
Copy OK

No errors occurred


AccurateRip summary

Track 1 not present in database
Track 2 not present in database
Track 3 not present in database
Track 4 not present in database
Track 5 not present in database
Track 6 not present in database
Track 7 not present in database
Track 8 not present in database
Track 9 not present in database
Track 10 not present in database

None of the tracks are present in the AccurateRip database

End of status report

CUE
REM GENRE "Heavy Metal"
REM DATE 2005
REM DISCID 9709490A
REM COMMENT "ExactAudioCopy v0.99pb5"
PERFORMER "Flashpoint"
TITLE "Lazer Love"
FILE "Flashpoint - Lazer Love.flac" WAVE
TRACK 01 AUDIO
TITLE "All My Love "
PERFORMER "Flashpoint"
FLAGS DCP
INDEX 01 00:00:00
TRACK 02 AUDIO
TITLE "Can't Take No More"
PERFORMER "Flashpoint"
FLAGS DCP
INDEX 00 04:15:45
INDEX 01 04:17:45
TRACK 03 AUDIO
TITLE "Cruisin'"
PERFORMER "Flashpoint"
FLAGS DCP
INDEX 00 09:04:21
INDEX 01 09:06:21
TRACK 04 AUDIO
TITLE "Casio Blanca"
PERFORMER "Flashpoint"
FLAGS DCP
INDEX 00 13:41:18
INDEX 01 13:43:18
TRACK 05 AUDIO
TITLE "Laser Love"
PERFORMER "Flashpoint"
FLAGS DCP
INDEX 00 15:59:04
INDEX 01 16:01:04
TRACK 06 AUDIO
TITLE "She's All Gone"
PERFORMER "Flashpoint"
FLAGS DCP
INDEX 00 19:49:71
INDEX 01 19:51:71
TRACK 07 AUDIO
TITLE "The Web"
PERFORMER "Flashpoint"
FLAGS DCP
INDEX 00 22:30:71
INDEX 01 22:32:71
TRACK 08 AUDIO
TITLE "Tsukiatari "
PERFORMER "Flashpoint"
FLAGS DCP
INDEX 00 26:12:71
INDEX 01 26:14:71
TRACK 09 AUDIO
TITLE "Lookin' For Answers (Live)"
PERFORMER "Flashpoint"
FLAGS DCP
INDEX 00 29:53:66
INDEX 01 29:55:66
TRACK 10 AUDIO
TITLE "Grand Prix (Live)"
PERFORMER "Flashpoint"
FLAGS DCP
INDEX 00 33:45:66
INDEX 01 33:47:66


Narod.Ru

Хороший альбомец, особенно учитывая, что записан после более чем пятнадцатилетнего молчания.

Лось первого альбома здесь: viewtopic.php?f=179&t=9724


Top
 Profile E-mail  
 
 
PostPosted: 03 Jan 2012 
Персональный статус
User avatar
Joined: 22 Oct 2011
Posts: 352
Lоcаtion: Moscow
Age: 61
Name: Серёжа
:thanx:


Top
 Profile E-mail  
 
 
PostPosted: 04 Jan 2012 
Хиппей (support team)
User avatar
Joined: 30 Jul 2007
Posts: 116046
Lоcаtion: Киев (Kyiv, UA)
Age: 46
Name: Andrey
:thanx:

mirror: MultiUp l Narod

_________________


Top
 Profile E-mail  
 
 
PostPosted: 04 Jan 2012 
Персональный статус
Joined: 02 Apr 2010
Posts: 223
Name: Андрей
Спасибо! :thanx:


Top
 Profile  
 
 
PostPosted: 04 Jan 2012 
Персональный статус
Joined: 02 Apr 2010
Posts: 223
Name: Андрей
church wrote:
Хороший альбомец, особенно учитывая, что записан после более чем пятнадцатилетнего молчания.

Щас! Это не новый альбом, а сборник демок и неизданного материала 20-ти летней давности, это кстати прямым текстом в буклете написано. По хреновому качеству записи и музыке догадаться можно было... За знакомство впрочем ещё раз Спасибо, неплохой музон.


Top
 Profile  
 
 
PostPosted: 29 Jan 2012 
Прокъмитолист
User avatar
Joined: 12 Aug 2007
Posts: 6652
Lоcаtion: Санктъ-Петербуркъ
Age: 52
Name: Олекъ
утащу. спасибо, Димка! :thanx:

_________________
прокъметол - это музыко, от которово есть прок (ы)


Top
 Profile  
 
 
PostPosted: 08 Mar 2012 
Работнечег
User avatar
Joined: 28 Aug 2007
Posts: 6086
Lоcаtion: г. Москва
Age: 30
Name: Дима
cammard wrote:
church wrote:
Хороший альбомец, особенно учитывая, что записан после более чем пятнадцатилетнего молчания.

Щас! Это не новый альбом, а сборник демок и неизданного материала 20-ти летней давности, это кстати прямым текстом в буклете написано. По хреновому качеству записи и музыке догадаться можно было... За знакомство впрочем ещё раз Спасибо, неплохой музон.

Да, недоглядел, пардон. Для self-released качество звучания сильно варьируется и основываясь только на этом ранова-то выводы делать, имхо.


Top
 Profile E-mail  
 
 
PostPosted: 31 Mar 2012 
Труъ
Joined: 01 Jan 2010
Posts: 118
Lоcаtion: MetaLWarrioR
Name: Сергей
Большое спасибо!


Top
 Profile E-mail  
 
 
PostPosted: 31 Mar 2012 
Пионэръ
Joined: 12 Aug 2009
Posts: 23
Name: Явор
Прекрасно!!! Спасибо, Дима!!!


Top
 Profile E-mail  
 
Display posts from previous:  Sort by  
Post new topic Reply to topic  [ 9 posts ] 

All times are UTC + 3 hours


Who is online

Users browsing this forum: No registered users and 1 guest


You cannot post new topics in this forum
You cannot reply to topics in this forum
You cannot edit your posts in this forum
You cannot delete your posts in this forum
You cannot post attachments in this forum

Search for:
Яндекс.Метрика
Powered by phpBB © 2000, 2002, 2005, 2007 phpBB Group