\m/ 80's metal \m/

Информационно-аналитический форум "80 см пыли" (In Search We Trust) "У нас никто никуда не спешит"
Me For You - http://me-4u.com
It is currently 11 Dec 2019

All times are UTC + 3 hours

Spoiler
Chat - temporary registration for foreign users (please leave your application here)







Post new topic Reply to topic  [ 11 posts ] 
Author Message
 
PostPosted: 09 Sep 2011 
10cm
User avatar
Joined: 16 Apr 2010
Posts: 75
Lоcаtion: CZ
Age: 56
Name: komik363
Image


Year : 1998
Style : Melodic Heavy Metal
Country : Germany
Format : EAC - flac image, all scans / 600 dpi
Size img: 500 + 75 Mb
no pass

Tracks:
1. Intro [1:03]
2. Gods Of Thunder [6:35]
3. Adventureland [6:48]
4. Damian [5:03]
5. All I Want Is You [4:45]
6. Hunter [7:03]
7. Looser [5:27]
8. Kill Without A Warning [3:31]
9. Stonehenge [6:26]
10. Feel So Lonely [6:29]
11. Prisoner Of Your Heart [4:47]
12. Nightmare Evil [4:04] ]

http://ifolder.ru/25647040
http://ifolder.ru/25647022

log
Exact Audio Copy V0.99 prebeta 4 from 23. January 2008

EAC extraction logfile from 8. September 2011, 17:11

Fortress / Magic Touch

Used drive : HL-DT-STDVD-RAM GH22NP20 Adapter: 0 ID: 0

Read mode : Secure
Utilize accurate stream : Yes
Defeat audio cache : Yes
Make use of C2 pointers : No

Read offset correction : 102
Overread into Lead-In and Lead-Out : No
Fill up missing offset samples with silence : Yes
Delete leading and trailing silent blocks : No
Null samples used in CRC calculations : Yes
Used interface : Native Win32 interface for Win NT & 2000

Used output format : User Defined Encoder
Selected bitrate : 768 kBit/s
Quality : High
Add ID3 tag : No
Command line compressor : C:\Program Files\Exact Audio Copy\FLAC\FLAC.EXE
Additional command line options : -8 -V -T "ARTIST=%a" -T "TITLE=%t" -T "ALBUM=%g" -T "DATE=%y" -T "TRACKNUMBER=%n" -T "GENRE=%m" -T "COMMENT=%e" %s -o %d


TOC of the extracted CD

Track | Start | Length | Start sector | End sector
---------------------------------------------------------
1 | 0:00.00 | 1:03.20 | 0 | 4744
2 | 1:03.20 | 6:35.61 | 4745 | 34430
3 | 7:39.06 | 6:50.33 | 34431 | 65213
4 | 14:29.39 | 5:04.02 | 65214 | 88015
5 | 19:33.41 | 4:45.72 | 88016 | 109462
6 | 24:19.38 | 7:05.28 | 109463 | 141365
7 | 31:24.66 | 5:27.61 | 141366 | 165951
8 | 36:52.52 | 3:33.23 | 165952 | 181949
9 | 40:26.00 | 6:27.28 | 181950 | 211002
10 | 46:53.28 | 6:30.60 | 211003 | 240312
11 | 53:24.13 | 4:48.56 | 240313 | 261968
12 | 58:12.69 | 4:05.19 | 261969 | 280362


Range status and errors

Selected range

Filename E:\aavypal\uploads\Fortress - Magic Touch.wav

Peak level 100.0 %
Range quality 100.0 %
Copy CRC 7BEE28D4
Copy OK

No errors occurred


AccurateRip summary

Track 1 not present in database
Track 2 not present in database
Track 3 not present in database
Track 4 not present in database
Track 5 not present in database
Track 6 not present in database
Track 7 not present in database
Track 8 not present in database
Track 9 not present in database
Track 10 not present in database
Track 11 not present in database
Track 12 not present in database

None of the tracks are present in the AccurateRip database

End of status report


cue
REM GENRE Rock
REM DISCID A10E9A0C
REM COMMENT "ExactAudioCopy v0.99pb4"
PERFORMER "Fortress"
TITLE "Magic Touch"
FILE "Fortress - Magic Touch.flac" WAVE
TRACK 01 AUDIO
TITLE "Intro"
PERFORMER "Fortress"
INDEX 01 00:00:00
TRACK 02 AUDIO
TITLE "Gods Of Thunder"
PERFORMER "Fortress"
INDEX 01 01:03:20
TRACK 03 AUDIO
TITLE "Adventureland"
PERFORMER "Fortress"
INDEX 01 07:39:06
TRACK 04 AUDIO
TITLE "Damian"
PERFORMER "Fortress"
INDEX 01 14:29:39
TRACK 05 AUDIO
TITLE "All I Want Is You"
PERFORMER "Fortress"
INDEX 01 19:33:41
TRACK 06 AUDIO
TITLE "Hunter"
PERFORMER "Fortress"
INDEX 01 24:19:38
TRACK 07 AUDIO
TITLE "Looser"
PERFORMER "Fortress"
INDEX 01 31:24:66
TRACK 08 AUDIO
TITLE "Kill Without A Warning"
PERFORMER "Fortress"
INDEX 01 36:52:52
TRACK 09 AUDIO
TITLE "Stonehenge"
PERFORMER "Fortress"
INDEX 01 40:26:00
TRACK 10 AUDIO
TITLE "Feel So Loneley"
PERFORMER "Fortress"
INDEX 01 46:53:28
TRACK 11 AUDIO
TITLE "Prisoner Of Your Heart"
PERFORMER "Fortress"
INDEX 01 53:24:13
TRACK 12 AUDIO
TITLE "Nightmare Evil"
PERFORMER "Fortress"
INDEX 01 58:12:69


spectrum
Attachment:
Fortress.png


Last edited by komik363 on 09 Sep 2011, edited 1 time in total.

Top
 Profile E-mail  
 
 
PostPosted: 09 Sep 2011 
Хиппей (support team)
User avatar
Joined: 30 Jul 2007
Posts: 116083
Lоcаtion: Киев (Kyiv, UA)
Age: 46
Name: Andrey
Опа...
Спасибо :thanx:

mirror: MultiUp l Narod

_________________


Top
 Profile E-mail  
 
 
PostPosted: 09 Sep 2011 
хард н хэвщик (support team)
User avatar
Joined: 02 Jun 2008
Posts: 16881
Lоcаtion: Н.Новгород
Age: 32
Name: Артем
:true:


Top
 Profile  
 
 
PostPosted: 09 Sep 2011 
Я набрал 1000 сообщений!
Joined: 24 Oct 2009
Posts: 2299
Lоcаtion: Оренбург
Age: 56
Name: Юра
:true: :thanx:

_________________
:dash: I am happy!


Top
 Profile E-mail  
 
 
PostPosted: 09 Sep 2011 
Прокъмитолист
User avatar
Joined: 12 Aug 2007
Posts: 6652
Lоcаtion: Санктъ-Петербуркъ
Age: 52
Name: Олекъ
thanks! :thanx:

_________________
прокъметол - это музыко, от которово есть прок (ы)


Top
 Profile  
 
 
PostPosted: 09 Sep 2011 
Хиппей (support team)
User avatar
Joined: 30 Jul 2007
Posts: 116083
Lоcаtion: Киев (Kyiv, UA)
Age: 46
Name: Andrey
Ой, какой же слабый альбом... :(
Ощущение, что группа записывала его на школьной репетиции, и даже не пыталась свести в студии.
Музыка простая, как 3 копейки, вокал даже не то что плох, он вообще никакой. Так петь нельзя, даже противопоказано :esel:
Блин, да такие альбомы даже в 80-х было стыдно выпускать, не говоря уже о конце 90-х :yyy:
И еще один большой минус - затянутость релиза. Чуть более часа слушать эту нудятину очень сложно... Хоть и в концовке группа немного раскачалась, но это лишь временное просветление.

2/10

_________________


Top
 Profile E-mail  
 
 
PostPosted: 09 Sep 2011 
Old Time Rock`n`Roll
User avatar
Joined: 23 Jun 2008
Posts: 3505
Lоcаtion: г.Ульяновск
Age: 41
Name: Константин
Scatterbrain wrote:
Блин, да такие альбомы даже в 80-х было стыдно выпускать


И вообще, ни одна порядочная девушка не разместила бы в 80-е такую гнусную татуировку на своих бедрах :true:
Там должен был быть Джон Бон Джови :true: В крайнем случае - Жан-Клод Ван Дамм )))


Top
 Profile  
 
 
PostPosted: 09 Sep 2011 
Хиппей (support team)
User avatar
Joined: 30 Jul 2007
Posts: 116083
Lоcаtion: Киев (Kyiv, UA)
Age: 46
Name: Andrey
oldrocker wrote:
И вообще

Ну вот щас второй раз слушаю... вторая часть альбома все же более-менее. Но всё равно уровень группы ничтожно низок :(
Не зря они его самиздатом запердолили...

_________________


Top
 Profile E-mail  
 
 
PostPosted: 10 Sep 2011 
Труъ
User avatar
Joined: 12 Jun 2010
Posts: 189
Age: 54
Name: George
Sweet!! :true:


Top
 Profile E-mail  
 
 
PostPosted: 20 May 2019 
DarkSage
User avatar
Joined: 24 Sep 2009
Posts: 1092
Lоcаtion: Moscow
Name: Оксана
:thanx: у вас ссылка долговечнее оказалась :lob:

_________________
Image,Image


Top
 Profile E-mail  
 
 
PostPosted: 24 May 2019 
Хиппей (support team)
User avatar
Joined: 30 Jul 2007
Posts: 116083
Lоcаtion: Киев (Kyiv, UA)
Age: 46
Name: Andrey
Наши ссылки самые да, самые древние ссылки, как рога мамонтов. Но живые :slo:

_________________


Top
 Profile E-mail  
 
Display posts from previous:  Sort by  
Post new topic Reply to topic  [ 11 posts ] 

All times are UTC + 3 hours


Who is online

Users browsing this forum: No registered users and 2 guests


You cannot post new topics in this forum
You cannot reply to topics in this forum
You cannot edit your posts in this forum
You cannot delete your posts in this forum
You cannot post attachments in this forum

Search for:
Яндекс.Метрика
cron
Powered by phpBB © 2000, 2002, 2005, 2007 phpBB Group