\m/ 80's metal \m/

Информационно-аналитический форум "80 см пыли" (In Search We Trust) "У нас никто никуда не спешит"
Me For You - http://me-4u.com
It is currently 21 Oct 2019

All times are UTC + 3 hours

Spoiler
Chat - temporary registration for foreign users (please leave your application here)







Post new topic Reply to topic  [ 17 posts ] 
Author Message
 
PostPosted: 05 Feb 2016 
Генеральный thrasher
User avatar
Joined: 03 Oct 2008
Posts: 3741
Lоcаtion: Ханты-Мансийский АО
Age: 44
Name: Сергей
Image

Year:2013
Style:Power/Thrash Metal
Country:U.S.A.
Archive:Flac+Cue+Log+Scans
Size:552Mb+342Mb
Source:my CD
Label:Divebomb Records

CD 1:
Rise Above (1999)
01. Man Against Machine 03:08
02. Fading Away 02:27
03. Ninety Nine 03:14
04. Forgiven 05:11
05. Rise Above 04:59
06. Destroyer 03:39
07. Poison Tongue 03:43
08. Burn 02:46
09. Over My Head 03:40
10. Until The End Of Time 03:43
Destructive (1997)
11. Barcode 02:42
12. Deviate 02:04
13. Hammer 02:09
14. Destructive 02:31
15. October 04:26
16. Heal Me 02:55
17. Strength 02:46
18. Neversleep 04:08
19. The Hard Way 03:43
20. Art Of War 02:24
21. Eternal 04:48
22. Far Away 01:20

CD 2:
Division (1994)
01. Dischord 03:43
02. One Flesh 03:48
03. Inhuman 03:06
04. Division 04:44
05. Thirteen Steps 03:28
06. Legacy Of Silence 04:10
07. The Last Machine 05:15
08. Ultimatum 04:28
09. E.2.M.N. 03:07
10. Back To Zero 03:09
11. In This Life 04:35
12. Fast As A Shark 04:09

"Cue 1"
REM GENRE "Power/Thrash Metal"
REM DATE 2013
REM DISCID 6610ED16
REM COMMENT "ExactAudioCopy v0.99pb5"
PERFORMER "Forte"
TITLE "Invictus CD 1"
FILE "Forte - Invictus CD 1.flac" WAVE
TRACK 01 AUDIO
TITLE "Man Against Machine"
PERFORMER "Forte"
FLAGS DCP
INDEX 01 00:00:00
TRACK 02 AUDIO
TITLE "Fading Away"
PERFORMER "Forte"
FLAGS DCP
INDEX 01 03:07:04
TRACK 03 AUDIO
TITLE "Ninety Nine"
PERFORMER "Forte"
FLAGS DCP
INDEX 01 05:33:06
TRACK 04 AUDIO
TITLE "Forgiven"
PERFORMER "Forte"
FLAGS DCP
INDEX 01 08:46:20
TRACK 05 AUDIO
TITLE "Rise Above"
PERFORMER "Forte"
FLAGS DCP
INDEX 01 13:56:36
TRACK 06 AUDIO
TITLE "Destroyer"
PERFORMER "Forte"
FLAGS DCP
INDEX 01 18:54:51
TRACK 07 AUDIO
TITLE "Poison Tongue"
PERFORMER "Forte"
FLAGS DCP
INDEX 01 22:33:12
TRACK 08 AUDIO
TITLE "Burn"
PERFORMER "Forte"
FLAGS DCP
INDEX 01 26:15:17
TRACK 09 AUDIO
TITLE "Over My Head"
PERFORMER "Forte"
FLAGS DCP
INDEX 01 29:00:57
TRACK 10 AUDIO
TITLE "Until the End of Time"
PERFORMER "Forte"
FLAGS DCP
INDEX 01 32:40:54
TRACK 11 AUDIO
TITLE "Barcode"
PERFORMER "Forte"
FLAGS DCP
INDEX 01 36:23:09
TRACK 12 AUDIO
TITLE "Deviate"
PERFORMER "Forte"
FLAGS DCP
INDEX 01 39:04:57
TRACK 13 AUDIO
TITLE "Hammer"
PERFORMER "Forte"
FLAGS DCP
INDEX 01 41:07:73
TRACK 14 AUDIO
TITLE "Destructive"
PERFORMER "Forte"
FLAGS DCP
INDEX 01 43:16:59
TRACK 15 AUDIO
TITLE "October"
PERFORMER "Forte"
FLAGS DCP
INDEX 01 45:47:03
TRACK 16 AUDIO
TITLE "Heal Me"
PERFORMER "Forte"
FLAGS DCP
INDEX 01 50:13:01
TRACK 17 AUDIO
TITLE "Strength"
PERFORMER "Forte"
FLAGS DCP
INDEX 01 53:07:57
TRACK 18 AUDIO
TITLE "Neversleep"
PERFORMER "Forte"
FLAGS DCP
INDEX 01 55:53:42
TRACK 19 AUDIO
TITLE "The Hard Way"
PERFORMER "Forte"
FLAGS DCP
INDEX 01 60:00:52
TRACK 20 AUDIO
TITLE "Art of War"
PERFORMER "Forte"
FLAGS DCP
INDEX 01 63:42:61
TRACK 21 AUDIO
TITLE "Eternal"
PERFORMER "Forte"
FLAGS DCP
INDEX 01 66:06:41
TRACK 22 AUDIO
TITLE "Far Away"
PERFORMER "Forte"
FLAGS DCP
INDEX 01 70:54:19

"Cue 2"
REM GENRE "Power/Thrash Metal"
REM DATE 2013
REM DISCID 980B210C
REM COMMENT "ExactAudioCopy v0.99pb5"
PERFORMER "Forte"
TITLE "Invictus CD 2"
FILE "Forte - Invictus CD 2.flac" WAVE
TRACK 01 AUDIO
TITLE "Dischord"
PERFORMER "Forte"
FLAGS DCP
INDEX 01 00:00:00
TRACK 02 AUDIO
TITLE "One Flesh"
PERFORMER "Forte"
FLAGS DCP
INDEX 01 03:42:06
TRACK 03 AUDIO
TITLE "Inhuman"
PERFORMER "Forte"
FLAGS DCP
INDEX 01 07:29:41
TRACK 04 AUDIO
TITLE "Division"
PERFORMER "Forte"
FLAGS DCP
INDEX 01 10:34:64
TRACK 05 AUDIO
TITLE "Thirteen Steps"
PERFORMER "Forte"
FLAGS DCP
INDEX 01 15:18:39
TRACK 06 AUDIO
TITLE "Legacy Of Silence"
PERFORMER "Forte"
FLAGS DCP
INDEX 01 18:46:26
TRACK 07 AUDIO
TITLE "The Last Machine"
PERFORMER "Forte"
FLAGS DCP
INDEX 01 22:56:24
TRACK 08 AUDIO
TITLE "Ultimatum"
PERFORMER "Forte"
FLAGS DCP
INDEX 01 28:11:01
TRACK 09 AUDIO
TITLE "E.2.M.N."
PERFORMER "Forte"
FLAGS DCP
INDEX 01 32:30:64
TRACK 10 AUDIO
TITLE "Back To Zero"
PERFORMER "Forte"
FLAGS DCP
INDEX 01 35:37:11
TRACK 11 AUDIO
TITLE "In This Life"
PERFORMER "Forte"
FLAGS DCP
INDEX 01 38:45:74
TRACK 12 AUDIO
TITLE "Fast As A Shark"
PERFORMER "Forte"
FLAGS DCP
INDEX 01 43:20:36

"Log 1"
Exact Audio Copy V0.99 prebeta 5 from 4. May 2009

Отчёт EAC об извлечении, выполненном 18. сентября 2015, 14:30

Forte / Invictus CD 1

Дисковод: MATSHITADVD-RAM UJ8A0AS Adapter: 0 ID: 1

Режим чтения : Достоверность
Использование точного потока : Да
Отключение кэша аудио : Да
Использование указателей C2 : Нет

Коррекция смещения при чтении : 102
Способность читать области Lead-in и Lead-out : Нет
Заполнение пропущенных сэмплов тишиной : Да
Удаление блоков с тишиной в начале и конце : Нет
При вычислениях CRC использовались нулевые сэмплы : Да
Интерфейс : Встроенный Win32-интерфейс для Win NT/2000

Выходной формат : Пользовательский кодировщик
Выбранный битрейт : 1024 kBit/s
Качество : Высокий
Добавление ID3-тэга : Нет
Утилита сжатия : C:\Program Files\Exact Audio Copy\FLAC\FLAC.EXE
Дополнительные параметры : -6 -V -T "ARTIST=%a" -T "TITLE=%t" -T "ALBUM=%g" -T "DATE=%y" -T "TRACKNUMBER=%n" -T "GENRE=%m" -T "COMMENT=%e" %s -o %d


TOC извлечённого CD

Трек | Старт | Длительность | Начальный сектор | Конечный сектор
---------------------------------------------------------------------
1 | 0:00.00 | 3:07.04 | 0 | 14028
2 | 3:07.04 | 2:26.02 | 14029 | 24980
3 | 5:33.06 | 3:13.14 | 24981 | 39469
4 | 8:46.20 | 5:10.16 | 39470 | 62735
5 | 13:56.36 | 4:58.15 | 62736 | 85100
6 | 18:54.51 | 3:38.36 | 85101 | 101486
7 | 22:33.12 | 3:42.05 | 101487 | 118141
8 | 26:15.17 | 2:45.40 | 118142 | 130556
9 | 29:00.57 | 3:39.72 | 130557 | 147053
10 | 32:40.54 | 3:42.30 | 147054 | 163733
11 | 36:23.09 | 2:41.48 | 163734 | 175856
12 | 39:04.57 | 2:03.16 | 175857 | 185097
13 | 41:07.73 | 2:08.61 | 185098 | 194758
14 | 43:16.59 | 2:30.19 | 194759 | 206027
15 | 45:47.03 | 4:25.73 | 206028 | 225975
16 | 50:13.01 | 2:54.56 | 225976 | 239081
17 | 53:07.57 | 2:45.60 | 239082 | 251516
18 | 55:53.42 | 4:07.10 | 251517 | 270051
19 | 60:00.52 | 3:42.09 | 270052 | 286710
20 | 63:42.61 | 2:23.55 | 286711 | 297490
21 | 66:06.41 | 4:47.53 | 297491 | 319068
22 | 70:54.19 | 1:19.13 | 319069 | 325006


Характеристики диапазона извлечения и сообщения об ошибках

Выбранный диапазон

Имя файла C:\Users\эксперт\Music\Forte - Invictus CD 1.wav

Пиковый уровень 98.8 %
Качество диапазона 99.9 %
CRC копии 17412294
Копирование... OK

Ошибок не произошло


AccurateRip: сводка

Трек 1 нет в базе данных
Трек 2 нет в базе данных
Трек 3 нет в базе данных
Трек 4 нет в базе данных
Трек 5 нет в базе данных
Трек 6 нет в базе данных
Трек 7 нет в базе данных
Трек 8 нет в базе данных
Трек 9 нет в базе данных
Трек 10 нет в базе данных
Трек 11 нет в базе данных
Трек 12 нет в базе данных
Трек 13 нет в базе данных
Трек 14 нет в базе данных
Трек 15 нет в базе данных
Трек 16 нет в базе данных
Трек 17 нет в базе данных
Трек 18 нет в базе данных
Трек 19 нет в базе данных
Трек 20 нет в базе данных
Трек 21 нет в базе данных
Трек 22 нет в базе данных

Ни одного трека нет в базе AccurateRip

Конец отчёта

"Log 2"
Exact Audio Copy V0.99 prebeta 5 from 4. May 2009

Отчёт EAC об извлечении, выполненном 18. сентября 2015, 15:24

Forte / Invictus CD 2

Дисковод: MATSHITADVD-RAM UJ8A0AS Adapter: 0 ID: 1

Режим чтения : Достоверность
Использование точного потока : Да
Отключение кэша аудио : Да
Использование указателей C2 : Нет

Коррекция смещения при чтении : 102
Способность читать области Lead-in и Lead-out : Нет
Заполнение пропущенных сэмплов тишиной : Да
Удаление блоков с тишиной в начале и конце : Нет
При вычислениях CRC использовались нулевые сэмплы : Да
Интерфейс : Встроенный Win32-интерфейс для Win NT/2000

Выходной формат : Пользовательский кодировщик
Выбранный битрейт : 1024 kBit/s
Качество : Высокий
Добавление ID3-тэга : Нет
Утилита сжатия : C:\Program Files\Exact Audio Copy\FLAC\FLAC.EXE
Дополнительные параметры : -6 -V -T "ARTIST=%a" -T "TITLE=%t" -T "ALBUM=%g" -T "DATE=%y" -T "TRACKNUMBER=%n" -T "GENRE=%m" -T "COMMENT=%e" %s -o %d


TOC извлечённого CD

Трек | Старт | Длительность | Начальный сектор | Конечный сектор
---------------------------------------------------------------------
1 | 0:00.00 | 3:42.06 | 0 | 16655
2 | 3:42.06 | 3:47.35 | 16656 | 33715
3 | 7:29.41 | 3:05.23 | 33716 | 47613
4 | 10:34.64 | 4:43.50 | 47614 | 68888
5 | 15:18.39 | 3:27.62 | 68889 | 84475
6 | 18:46.26 | 4:09.73 | 84476 | 103223
7 | 22:56.24 | 5:14.52 | 103224 | 126825
8 | 28:11.01 | 4:19.63 | 126826 | 146313
9 | 32:30.64 | 3:06.22 | 146314 | 160285
10 | 35:37.11 | 3:08.63 | 160286 | 174448
11 | 38:45.74 | 4:34.37 | 174449 | 195035
12 | 43:20.36 | 4:08.48 | 195036 | 213683


Характеристики диапазона извлечения и сообщения об ошибках

Выбранный диапазон

Имя файла C:\Users\эксперт\Music\Forte - Invictus CD 2.wav

Пиковый уровень 98.8 %
Качество диапазона 99.9 %
CRC копии 3284A9C1
Копирование... OK

Ошибок не произошло


AccurateRip: сводка

Трек 1 нет в базе данных
Трек 2 нет в базе данных
Трек 3 нет в базе данных
Трек 4 нет в базе данных
Трек 5 нет в базе данных
Трек 6 нет в базе данных
Трек 7 нет в базе данных
Трек 8 нет в базе данных
Трек 9 нет в базе данных
Трек 10 нет в базе данных
Трек 11 нет в базе данных
Трек 12 нет в базе данных

Ни одного трека нет в базе AccurateRip

Конец отчёта


Invictus CD 1
Invictus CD 2


Top
 Profile  
 
 
PostPosted: 05 Feb 2016 
Alive Again
User avatar
Joined: 17 Dec 2008
Posts: 4747
Lоcаtion: Курск Воронеж Оскол
Age: 45
Name: Дмитрий
:thanx:


Top
 Profile E-mail  
 
 
PostPosted: 05 Feb 2016 
спирт 100%
User avatar
Joined: 22 Sep 2008
Posts: 4477
Age: 48
Name: Саня
Спасибо! :thanx:


Top
 Profile  
 
 
PostPosted: 05 Feb 2016 
Хиппей (support team)
User avatar
Joined: 30 Jul 2007
Posts: 114979
Lоcаtion: Киев (Kyiv, UA)
Age: 46
Name: Andrey
:thanx:

mirror: iFolder l Narod l M-Cloud

_________________


Top
 Profile E-mail  
 
 
PostPosted: 05 Feb 2016 
Хиппей (support team)
User avatar
Joined: 30 Jul 2007
Posts: 114979
Lоcаtion: Киев (Kyiv, UA)
Age: 46
Name: Andrey
Слушаю. Снова музон классный - мощный техничный павер на грани трэша и с очень хорошим, сильный вокалом с широким диапазоном голоса.
Но вот снова альбомы идут на дисках не по хренологии :fingal:

_________________


Top
 Profile E-mail  
 
 
PostPosted: 05 Feb 2016 
Доктор энтомологии
User avatar
Joined: 22 Jan 2009
Posts: 9927
Lоcаtion: Даугавпилс
Age: 44
Name: Алексей
Quote:
Но вот снова альбомы идут на дисках не по хренологии

Новое же обычно лучше старого, просроченного :pardon:


Top
 Profile  
 
 
PostPosted: 05 Feb 2016 
Генеральный thrasher
User avatar
Joined: 03 Oct 2008
Posts: 3741
Lоcаtion: Ханты-Мансийский АО
Age: 44
Name: Сергей
Но вот снова альбомы идут на дисках не по хренологии :fingal:


Это так принципиально,Андрюха?


Top
 Profile  
 
 
PostPosted: 05 Feb 2016 
Хиппей (support team)
User avatar
Joined: 30 Jul 2007
Posts: 114979
Lоcаtion: Киев (Kyiv, UA)
Age: 46
Name: Andrey
Quote:
Но вот снова альбомы идут на дисках не по хренологии

Новое же обычно лучше старого, просроченного :pardon:

В данных случаях как раз наоборот - первый альбом неплох, два вторых так себе.
На предыдущих релизах от этой же конторы была такая же обычная тенденция. Первые альбомы у групп обычно хороши, а дальше скатываются в кал :pardon:

_________________


Top
 Profile E-mail  
 
 
PostPosted: 05 Feb 2016 
Хиппей (support team)
User avatar
Joined: 30 Jul 2007
Posts: 114979
Lоcаtion: Киев (Kyiv, UA)
Age: 46
Name: Andrey
Но вот снова альбомы идут на дисках не по хренологии :fingal:


Это так принципиально,Андрюха?

Серёг, это не влияет на выбор продукции, да. Но слушать альбомы методом беспорядочного тыка это уже немного не торт.
Они бы ещё песни перемешали в одну кучу произвольном порядке, хорошо было бы? :crazy:

Хоть, сборка это, но сборка то альбомная.

_________________


Top
 Profile E-mail  
 
 
PostPosted: 05 Feb 2016 
Доктор энтомологии
User avatar
Joined: 22 Jan 2009
Posts: 9927
Lоcаtion: Даугавпилс
Age: 44
Name: Алексей
92й где-то в мп3 валяется, надо послушать что у них дальше. Давно очень слушал, лет 15 назад, тогда грувастыми очень показались, не понравились. Спасибо большое , Серега :lob:


Top
 Profile  
 
 
PostPosted: 05 Feb 2016 
Хиппей (support team)
User avatar
Joined: 30 Jul 2007
Posts: 114979
Lоcаtion: Киев (Kyiv, UA)
Age: 46
Name: Andrey
Entomologist wrote:
надо послушать что у них дальше. Давно очень слушал, лет 15 назад, тогда грувастыми очень показались, не понравились.

Именно всё так и было и есть :fingal:
И вот, начинаешь ты сие издание слушать как раз с.. грувастого альбома.

_________________


Top
 Profile E-mail  
 
 
PostPosted: 05 Feb 2016 
ТрэшЭрос
User avatar
Joined: 18 Jul 2011
Posts: 2305
Lоcаtion: Гулькевичи
Age: 44
Name: Александр
:thanx: :true:

_________________
Thrash no trash!!!


Top
 Profile E-mail  
 
 
PostPosted: 05 Feb 2016 
Хиппей (support team)
User avatar
Joined: 30 Jul 2007
Posts: 114979
Lоcаtion: Киев (Kyiv, UA)
Age: 46
Name: Andrey
Что-то мне и альбом 1994 года не очень нравится... :fingal:

_________________


Top
 Profile E-mail  
 
 
PostPosted: 05 Feb 2016 
Хиппей (support team)
User avatar
Joined: 30 Jul 2007
Posts: 114979
Lоcаtion: Киев (Kyiv, UA)
Age: 46
Name: Andrey
Мдя, и ваще все эти 3 альбома не понравились :yyy:

_________________


Top
 Profile E-mail  
 
 
PostPosted: 05 Feb 2016 
Прокъмитолист
User avatar
Joined: 12 Aug 2007
Posts: 6628
Lоcаtion: Санктъ-Петербуркъ
Age: 52
Name: Олекъ
92-й вроде получше (насколько я помню). а потом все моднее и грувастей, ага :umnik:

_________________
прокъметол - это музыко, от которово есть прок (ы)


Top
 Profile  
 
 
PostPosted: 05 Feb 2016 
Хиппей (support team)
User avatar
Joined: 30 Jul 2007
Posts: 114979
Lоcаtion: Киев (Kyiv, UA)
Age: 46
Name: Andrey
Они, вроде, с закоса под Метлу начинали, затем уходили немного в техничный трэш, а ушли опосля в... В никуда, мда.

_________________


Top
 Profile E-mail  
 
 
PostPosted: 09 Jul 2019 
Работнечег
User avatar
Joined: 28 Aug 2007
Posts: 6035
Lоcаtion: г. Москва
Age: 30
Name: Дима
:thanx:


Top
 Profile E-mail  
 
Display posts from previous:  Sort by  
Post new topic Reply to topic  [ 17 posts ] 

All times are UTC + 3 hours


Who is online

Users browsing this forum: No registered users and 2 guests


You cannot post new topics in this forum
You cannot reply to topics in this forum
You cannot edit your posts in this forum
You cannot delete your posts in this forum
You cannot post attachments in this forum

Search for:
Яндекс.Метрика
Powered by phpBB © 2000, 2002, 2005, 2007 phpBB Group