\m/ 80's metal \m/

Информационно-аналитический форум "80 см пыли" (In Search We Trust) "У нас никто никуда не спешит"
Me For You - http://me-4u.com
It is currently 19 Apr 2019

All times are UTC + 3 hours

Spoiler
Chat - temporary registration for foreign users (please leave your application here)







Post new topic Reply to topic  [ 73 posts ]  Go to page Previous  1, 2, 3, 4  Next
Author Message
 
PostPosted: 13 Sep 2009 
Прокъмитолист
User avatar
Joined: 12 Aug 2007
Posts: 6545
Lоcаtion: Санктъ-Петербуркъ
Age: 51
Name: Олекъ
дебютнег самому нужен :oops:

_________________
прокъметол - это музыко, от которово есть прок (ы)


Top
 Profile  
 
 
PostPosted: 01 Dec 2009 
Прокъмитолист
User avatar
Joined: 12 Aug 2007
Posts: 6545
Lоcаtion: Санктъ-Петербуркъ
Age: 51
Name: Олекъ
ну чо, так и будем пальцами ковырять :crazy: ? или залить вам своего ущербного лосика? а то ведь так на винте и пылицо :oops:

_________________
прокъметол - это музыко, от которово есть прок (ы)


Top
 Profile  
 
 
PostPosted: 01 Dec 2009 
хард н хэвщик (support team)
User avatar
Joined: 02 Jun 2008
Posts: 16881
Lоcаtion: Н.Новгород
Age: 32
Name: Артем
Олег, залей пожалуйста


Top
 Profile  
 
 
PostPosted: 02 Dec 2009 
Прокъмитолист
User avatar
Joined: 12 Aug 2007
Posts: 6545
Lоcаtion: Санктъ-Петербуркъ
Age: 51
Name: Олекъ
Exises [1996] Reternity
Cymbeline Records (CYMPLY 5079-2)

Image

Genre: progressive metal
Country: Netherlands
Source: CD-R
Contents: flac/cue/log/scans
Size: 361 MB

Tracklist:
01. Point Of No Return (Part I)
02. Meltdown Sector 6
03. Sole Survivor
04. S*P*Y
05. Realm Of Darkness
06. The Transformation
07. Fatal Miscount
08. Action Reset
09. Coming Man
10. Space Odyssey (The Voyage: Point Of No Return Part II)

Playtime: 52:13

Lineup:
Co Timmer [Cybernatic Speech Controller] - lead and backing vocals, various grunts
Michel Siethoff [High End Afterburner] - electric and acoustic guitars, robot voices, weird string anomalies
Rene Schaap [Positronic Key Enhancer] - keyboards, backing vocals and strange noises
Adri Sleyster [Sonic Boom Operator] - fretless and 5 string basses, bass pedals and backing vocals
Berend Houter [Bionic Time Keeper] - drums, percussion, hacking and slashing

EAC log
Code:
EAC extraction logfile from 16. August 2007, 18:46 for CD
Exises / Reternity

Used drive  : _NEC    DVD_RW ND-3500AG   Adapter: 0  ID: 2
Read mode   : Secure with NO C2, accurate stream, disable cache
Read offset correction : 48
Overread into Lead-In and Lead-Out : No

Used output format : Internal WAV Routines
                     44.100 Hz; 16 Bit; Stereo

Other options      :
    Fill up missing offset samples with silence : Yes
    Delete leading and trailing silent blocks : No
    Installed external ASPI interface


Range status and errors
Selected range
     Filename E:\Music\Exises - Reternity.wav

     Peak level 100.0 %
     Range quality 100.0 %
     CRC 9FE4E004
     Copy OK

No errors occured

End of status report

Spectrum
Image

Обращаю ваше внимание на то, что рип сделан с CD-R копии по меньшей мере "второго поколения". Со всеми "отягчающими":

AccurateRip check
Code:
[Disc ID: 00119b0a-0090f688-900c3d0a]
Track   [ CRC    ] Status
01   [3d487c6a] (00/01) No matches
02   [65250bb2] (00/01) No matches
03   [ff312a10] (00/01) No matches
04   [4deb51ef] (00/01) No matches
05   [cbb0221f] (00/01) No matches
06   [9e6a4fc0] (00/01) No matches
07   [528ca1a2] (00/01) No matches
08   [3dedcd83] (00/01) No matches
09   [b7b74e81] (00/01) No matches
10   [a4e829a2] (00/01) No matches
Offsetted by 1864:
01   [933d6bed] (01/01) Accurately ripped as in pressing(s) #1
02   [51a6d429] (01/01) Accurately ripped as in pressing(s) #1
03   [ebabd88e] (01/01) Accurately ripped as in pressing(s) #1
04   [25372b07] (01/01) Accurately ripped as in pressing(s) #1
05   [67f9f024] (01/01) Partial match to pressing(s) #1
06   [be4575c7] (01/01) Accurately ripped as in pressing(s) #1
07   [7a4b39d7] (01/01) Accurately ripped as in pressing(s) #1
08   [25f341af] (01/01) Partial match to pressing(s) #1
09   [4465a65c] (01/01) Partial match to pressing(s) #1
10   [40f01b12] (01/01) Partial match to pressing(s) #1

Посему, для истинных пуристов рекомендации к скачиванию отсутствуют чуть более, чем полностью :crazy:

_________________
прокъметол - это музыко, от которово есть прок (ы)


Top
 Profile  
 
 
PostPosted: 02 Dec 2009 
Прокъмитолист
User avatar
Joined: 12 Aug 2007
Posts: 6545
Lоcаtion: Санктъ-Петербуркъ
Age: 51
Name: Олекъ
лось тут
:los:

_________________
прокъметол - это музыко, от которово есть прок (ы)


Top
 Profile  
 
 
PostPosted: 02 Dec 2009 
хард н хэвщик (support team)
User avatar
Joined: 02 Jun 2008
Posts: 16881
Lоcаtion: Н.Новгород
Age: 32
Name: Артем
:true:


Top
 Profile  
 
 
PostPosted: 02 Dec 2009 
Я набрал 1000 сообщений!
User avatar
Joined: 25 Dec 2008
Posts: 1545
Age: 43
Name: Павел
Олег,спасибо! :true:


Top
 Profile  
 
 
PostPosted: 02 Dec 2009 
Хиппей (support team)
User avatar
Joined: 30 Jul 2007
Posts: 111707
Lоcаtion: Киев (Kyiv, UA)
Age: 45
Name: Andrey
:thanx:

_________________


Top
 Profile E-mail  
 
 
PostPosted: 02 Dec 2009 
А может смените мне статус?..
Joined: 03 Jul 2009
Posts: 859
Lоcаtion: Serbia
Name: Laki
I can't believe it Thanks !!!!


Top
 Profile E-mail  
 
 
PostPosted: 05 Dec 2009 
5cm
User avatar
Joined: 12 Aug 2009
Posts: 73
Name: jos
Exises is dutch (holland) band, NOT usa !!

http://home.planet.nl/~sieth002/Exises/ ... xises.html


Top
 Profile E-mail  
 
 
PostPosted: 16 Jul 2011 
Я набрал 1000 сообщений!
Joined: 12 Dec 2008
Posts: 1054
Lоcаtion: BULGARIA
Age: 40
Name: DIMITЪR
Exises -Exises[1987]

Image

Genre:Heavy metal


1.Fear for the Night
2.Misunderstood
3.Some Sort of Freedom
4.Behind the Wall
5.Burn the Lights
6.Stay With Me
7.Brainstorm
8.Carry On


Ищу рип с диск[ape,flac,wav] :true:


Top
 Profile  
 
 
PostPosted: 16 Jul 2011 
Прокъмитолист
User avatar
Joined: 12 Aug 2007
Posts: 6545
Lоcаtion: Санктъ-Петербуркъ
Age: 51
Name: Олекъ
плюс стопицот. дайте лося :losik:

_________________
прокъметол - это музыко, от которово есть прок (ы)


Top
 Profile  
 
 
PostPosted: 16 Jul 2011 
Я набрал 1000 сообщений!
User avatar
Joined: 25 Dec 2008
Posts: 1545
Age: 43
Name: Павел
На трэшмаге есть виниловый лось.


Top
 Profile  
 
 
PostPosted: 17 Sep 2011 
Труъ
Joined: 01 Jan 2010
Posts: 118
Lоcаtion: MetaLWarrioR
Name: Сергей
Exises - Exises (1986) Megaton [CD 016] (релизер - spiralarch/MMT)
http://ifolder.ru/25793935

"LOG"
Exact Audio Copy V1.0 beta 1 from 15. November 2010

EAC extraction logfile from 13. September 2011, 14:38

Exises / Exises

Used drive : Optiarc DVD RW AD-7240S Adapter: 2 ID: 0

Read mode : Secure
Utilize accurate stream : Yes
Defeat audio cache : Yes
Make use of C2 pointers : No

Read offset correction : 48
Overread into Lead-In and Lead-Out : No
Fill up missing offset samples with silence : Yes
Delete leading and trailing silent blocks : No
Null samples used in CRC calculations : Yes
Used interface : Native Win32 interface for Win NT & 2000

Used output format : Internal WAV Routines
Sample format : 44.100 Hz; 16 Bit; Stereo


TOC of the extracted CD

Track | Start | Length | Start sector | End sector
---------------------------------------------------------
1 | 0:00.00 | 4:10.70 | 0 | 18819
2 | 4:10.70 | 5:17.03 | 18820 | 42597
3 | 9:27.73 | 5:36.35 | 42598 | 67832
4 | 15:04.33 | 4:08.17 | 67833 | 86449
5 | 19:12.50 | 4:01.08 | 86450 | 104532
6 | 23:13.58 | 4:52.17 | 104533 | 126449
7 | 28:06.00 | 2:53.10 | 126450 | 139434
8 | 30:59.10 | 4:07.28 | 139435 | 157987


Range status and errors

Selected range

Filename D:\spiralarch\Exises - Exises.wav

Peak level 100.0 %
Extraction speed 0.4 X
Range quality 100.0 %
Copy CRC 4FA6F238
Copy OK

No errors occurred


AccurateRip summary

Track 1 accurately ripped (confidence 3) [DC0F7C92]
Track 2 accurately ripped (confidence 3) [A9546C03]
Track 3 accurately ripped (confidence 3) [775F04D5]
Track 4 accurately ripped (confidence 3) [F9B621F5]
Track 5 accurately ripped (confidence 3) [DD6206B8]
Track 6 accurately ripped (confidence 3) [15F015E6]
Track 7 accurately ripped (confidence 3) [EA61ADF2]
Track 8 accurately ripped (confidence 3) [FBF651B6]

All tracks accurately ripped

End of status report

==== Log checksum 5C01B5540B597C4EFB2E3DC14DEF10E80E0126CE50A023AE233BEAB7EF1AB102 ====

"CUE"
REM GENRE Metal
REM DATE 1986
REM DISCID 72083A08
REM COMMENT "ExactAudioCopy v1.0b1"
PERFORMER "Exises"
TITLE "Exises"
FILE "Exises - Exises.wav" WAVE
TRACK 01 AUDIO
TITLE "Fear For The Night"
PERFORMER "Exises"
INDEX 01 00:00:00
TRACK 02 AUDIO
TITLE "Misunderstood"
PERFORMER "Exises"
INDEX 01 04:10:70
TRACK 03 AUDIO
TITLE "Some Sort Of Freedom"
PERFORMER "Exises"
INDEX 00 09:27:30
INDEX 01 09:27:73
TRACK 04 AUDIO
TITLE "Behind The Wall"
PERFORMER "Exises"
INDEX 01 15:04:33
TRACK 05 AUDIO
TITLE "Burn The Lights"
PERFORMER "Exises"
INDEX 00 19:12:10
INDEX 01 19:12:50
TRACK 06 AUDIO
TITLE "Stay With Me"
PERFORMER "Exises"
INDEX 00 23:13:10
INDEX 01 23:13:58
TRACK 07 AUDIO
TITLE "Brainstorm"
PERFORMER "Exises"
INDEX 01 28:06:00
TRACK 08 AUDIO
TITLE "Carry On"
PERFORMER "Exises"
INDEX 01 30:59:10


Top
 Profile E-mail  
 
 
PostPosted: 17 Sep 2011 
консэрваторъ
Joined: 11 Aug 2007
Posts: 16807
Lоcаtion: Псков
Age: 45
Name: Сергей
spiralarch wrote:
дайте лося

MetaLWarrioR wrote:
релизер - spiralarch/MMT

что-то я не понял :dash: Олег, ты прикалываешься так? :crazy:
MetaLWarrioR wrote:
Exises - Exises (1986)

а год всё-таки 87-ой...

_________________
THRASH 'EM ALL


Top
 Profile E-mail  
 
 
PostPosted: 17 Sep 2011 
Труъ
Joined: 01 Jan 2010
Posts: 118
Lоcаtion: MetaLWarrioR
Name: Сергей
Нет, всё-таки 86-ой!


Top
 Profile E-mail  
 
 
PostPosted: 17 Sep 2011 
консэрваторъ
Joined: 11 Aug 2007
Posts: 16807
Lоcаtion: Псков
Age: 45
Name: Сергей
Дак а на архивах 87-ой...

_________________
THRASH 'EM ALL


Top
 Profile E-mail  
 
 
PostPosted: 17 Sep 2011 
Труъ
Joined: 01 Jan 2010
Posts: 118
Lоcаtion: MetaLWarrioR
Name: Сергей
А на буклете четко написано: "Recorded at "Studio 150" Amsterdam, april 1986"!


Top
 Profile E-mail  
 
 
PostPosted: 17 Sep 2011 
консэрваторъ
Joined: 11 Aug 2007
Posts: 16807
Lоcаtion: Псков
Age: 45
Name: Сергей
Ну тогда неплохо бы информацию на архивах подправить :oops:
MetaLWarrioR wrote:
А на буклете

Серёг, а можно эту картинку сюда?

_________________
THRASH 'EM ALL


Top
 Profile E-mail  
 
 
PostPosted: 17 Sep 2011 
Труъ
Joined: 01 Jan 2010
Posts: 118
Lоcаtion: MetaLWarrioR
Name: Сергей
Image


Top
 Profile E-mail  
 
Display posts from previous:  Sort by  
Post new topic Reply to topic  [ 73 posts ]  Go to page Previous  1, 2, 3, 4  Next

All times are UTC + 3 hours


Who is online

Users browsing this forum: No registered users and 1 guest


You cannot post new topics in this forum
You cannot reply to topics in this forum
You cannot edit your posts in this forum
You cannot delete your posts in this forum
You cannot post attachments in this forum

Search for:
Яндекс.Метрика
Powered by phpBB © 2000, 2002, 2005, 2007 phpBB Group