\m/ 80's metal \m/

Информационно-аналитический форум "80 см пыли" (In Search We Trust) "У нас никто никуда не спешит"
Me For You - http://me-4u.com
It is currently 16 Feb 2019

All times are UTC + 3 hours

Spoiler
Chat - temporary registration for foreign users (please leave your application here)







Post new topic Reply to topic  [ 73 posts ]  Go to page 1, 2, 3, 4  Next
Author Message
 
PostPosted: 08 May 2009 
хард н хэвщик (support team)
User avatar
Joined: 02 Jun 2008
Posts: 16880
Lоcаtion: Н.Новгород
Age: 31
Name: Артем
Image

Image

Exises - (1986) Exises [256]

1. Fear for the Night 04:10
2. Misunderstood 05:17
3. Some Sort of Freedom 05:37
4. Behind the Wall 04:26
5. Burn the Lights 04:01
6. Stay With Me 04:52
7. Brainstorm 02:53
8. Carry On 04:07

Хэви-металиисты с небольшим уклоном в прогрессив. Первые ассоциации которые приходят в голову - Crimson Glory

пятый трек:




альбом: http://ifolder.ru/12006791


Top
 Profile  
 
 
PostPosted: 08 May 2009 
*** Умер ***
User avatar
Joined: 25 Apr 2009
Posts: 2188
Lоcаtion: Санкт-Петербург
Age: 33
Name: Кирилл
:thanx:


Top
 Profile E-mail  
 
 
PostPosted: 08 May 2009 
Прокъмитолист
User avatar
Joined: 12 Aug 2007
Posts: 6527
Lоcаtion: Санктъ-Петербуркъ
Age: 51
Name: Олекъ
:zayaz:

Андрюх, требую переименовать этот смайл в "ищу лося" и включить в основное меню =)

_________________
прокъметол - это музыко, от которово есть прок (ы)


Top
 Profile  
 
 
PostPosted: 05 Aug 2009 
хард н хэвщик (support team)
User avatar
Joined: 02 Jun 2008
Posts: 16880
Lоcаtion: Н.Новгород
Age: 31
Name: Артем
Второй альбом от прогрессивщиков

Image

Exises - (1996) Reternity [256]

1. Point Of No Return (part 1) 01:24
2. Meltdown Sector 6 05:29
3. Sole Survivor 05:59
4. S*p*y 03:55
5. Realm Of Darkness 07:05
6. The Transformation 04:31
7. Fatal Miscount 04:42
8. Aciton Reset 04:29
9. Coming Man 05:43
10. Space Oddysey 08:56
Total playing time 52:13

http://ifolder.ru/13321539


Top
 Profile  
 
 
PostPosted: 05 Aug 2009 
Прокъмитолист
User avatar
Joined: 12 Aug 2007
Posts: 6527
Lоcаtion: Санктъ-Петербуркъ
Age: 51
Name: Олекъ
spiralarch wrote:
:zayaz:

все еще нужен лосевый дебютник :zayaz:

_________________
прокъметол - это музыко, от которово есть прок (ы)


Top
 Profile  
 
 
PostPosted: 05 Aug 2009 
хард н хэвщик (support team)
User avatar
Joined: 02 Jun 2008
Posts: 16880
Lоcаtion: Н.Новгород
Age: 31
Name: Артем
spiralarch wrote:
все еще нужен лосевый дебютник :zayaz:

Олег, зальешь 96 ? :oops:


Top
 Profile  
 
 
PostPosted: 05 Aug 2009 
хард н хэвщик (support team)
User avatar
Joined: 02 Jun 2008
Posts: 16880
Lоcаtion: Н.Новгород
Age: 31
Name: Артем
Шестой трек со второго альбома просто порвал :true: :true: :true:



Top
 Profile  
 
 
PostPosted: 05 Aug 2009 
Прокъмитолист
User avatar
Joined: 12 Aug 2007
Posts: 6527
Lоcаtion: Санктъ-Петербуркъ
Age: 51
Name: Олекъ
McKagan wrote:
зальешь 96 ?

допрыгалсо :crazy: надо проверить свою болваночку неизвестного происхождения :umnik:

_________________
прокъметол - это музыко, от которово есть прок (ы)


Top
 Profile  
 
 
PostPosted: 05 Aug 2009 
хард н хэвщик (support team)
User avatar
Joined: 02 Jun 2008
Posts: 16880
Lоcаtion: Н.Новгород
Age: 31
Name: Артем
spiralarch wrote:
допрыгалсо

:yahoo: :ura: :ura:


Top
 Profile  
 
 
PostPosted: 06 Aug 2009 
Power Metal Maniac
User avatar
Joined: 09 Aug 2008
Posts: 6590
Lоcаtion: Москва
Age: 41
Name: Егор
У мну кстати тоже болваночка неизвестного происхождения с Reternity, но вроде окейная.

_________________
Long Live Metal!


Top
 Profile  
 
 
PostPosted: 12 Aug 2009 
хард н хэвщик (support team)
User avatar
Joined: 02 Jun 2008
Posts: 16880
Lоcаtion: Н.Новгород
Age: 31
Name: Артем
EG Power wrote:
У мну кстати тоже болваночка неизвестного происхождения с Reternity, но вроде окейная.

spiralarch wrote:
допрыгалсо :crazy: надо проверить свою болваночку неизвестного происхождения :umnik:

:umnik:


Top
 Profile  
 
 
PostPosted: 12 Aug 2009 
Прокъмитолист
User avatar
Joined: 12 Aug 2007
Posts: 6527
Lоcаtion: Санктъ-Петербуркъ
Age: 51
Name: Олекъ
:fingal: сорри... забыл конечно же

_________________
прокъметол - это музыко, от которово есть прок (ы)


Top
 Profile  
 
 
PostPosted: 15 Aug 2009 
хард н хэвщик (support team)
User avatar
Joined: 02 Jun 2008
Posts: 16880
Lоcаtion: Н.Новгород
Age: 31
Name: Артем
McKagan wrote:
Шестой трек со второго альбома просто порвал :true: :true: :true:

сегодня еще раз порвала песня намбер 6 "Трансформация" :true: :true:
лося, лося, требует душа :dance:


Top
 Profile  
 
 
PostPosted: 16 Aug 2009 
Прокъмитолист
User avatar
Joined: 12 Aug 2007
Posts: 6527
Lоcаtion: Санктъ-Петербуркъ
Age: 51
Name: Олекъ
spiralarch wrote:
надо проверить свою болваночку неизвестного происхождения

AccurateRip wrote:
Offsetted by 1864:
01 [933d6bed] (01/01) Accurately ripped as in pressing(s) #1
02 [51a6d429] (01/01) Accurately ripped as in pressing(s) #1
03 [ebabd88e] (01/01) Accurately ripped as in pressing(s) #1
04 [25372b07] (01/01) Accurately ripped as in pressing(s) #1
05 [67f9f024] (01/01) Partial match to pressing(s) #1
06 [be4575c7] (01/01) Accurately ripped as in pressing(s) #1
07 [7a4b39d7] (01/01) Accurately ripped as in pressing(s) #1
08 [25f341af] (01/01) Partial match to pressing(s) #1
09 [4465a65c] (01/01) Partial match to pressing(s) #1
10 [40f01b12] (01/01) Partial match to pressing(s) #1

т.е. болваночка безусловно не мп3-шная, но смещена (фиг-то с ним) и 4 трэка не проходят проверку по АР (а вот это уже не гуд) :umnik:

з.ы. песня намбер 6 без косякоф :oops:

_________________
прокъметол - это музыко, от которово есть прок (ы)


Top
 Profile  
 
 
PostPosted: 16 Aug 2009 
хард н хэвщик (support team)
User avatar
Joined: 02 Jun 2008
Posts: 16880
Lоcаtion: Н.Новгород
Age: 31
Name: Артем
а ладно, ерунда, будем довольствоваться эмпэтрятинкой


Top
 Profile  
 
 
PostPosted: 16 Aug 2009 
Прокъмитолист
User avatar
Joined: 12 Aug 2007
Posts: 6527
Lоcаtion: Санктъ-Петербуркъ
Age: 51
Name: Олекъ
ну кагбе еще у Егора оно есть :oops:

_________________
прокъметол - это музыко, от которово есть прок (ы)


Top
 Profile  
 
 
PostPosted: 20 Aug 2009 
Хиппей (support team)
User avatar
Joined: 30 Jul 2007
Posts: 110281
Lоcаtion: Киев (Kyiv, UA)
Age: 45
Name: Andrey
McKagan wrote:
Exises - (1996) Reternity

Эх, а альбом то опупительно охренезный :true: :true: :true: Спасибо :thanx:
Встал в очередь ожидания лося... :oops:

_________________


Top
 Profile E-mail  
 
 
PostPosted: 13 Sep 2009 
Я набрал 1000 сообщений!
Joined: 12 Dec 2008
Posts: 1024
Lоcаtion: BULGARIA
Age: 40
Name: DIMITЪR
Exises - Exises

Image

Genre:Melodic heavy metal

1.Fear for the Night 04:10
2.Misunderstood 05:17
3.Some Sort of Freedom 05:37<mp3
4.Behind the Wall 04:26
5.Burn the Lights 04:01
6.Stay With Me 04:52
7.Brainstorm 02:53
8.Carry On 04:07
Total playing time:35:23


Thanks!!! :crazy:


Top
 Profile  
 
 
PostPosted: 13 Sep 2009 
хард н хэвщик (support team)
User avatar
Joined: 02 Jun 2008
Posts: 16880
Lоcаtion: Н.Новгород
Age: 31
Name: Артем
было такое дело, Олег отмазался отсутствием совпадений треков в базе данных, а Егорка сделал вид, что не видел топика :crazy:


Top
 Profile  
 
 
PostPosted: 13 Sep 2009 
хард н хэвщик (support team)
User avatar
Joined: 02 Jun 2008
Posts: 16880
Lоcаtion: Н.Новгород
Age: 31
Name: Артем
а, стоп, это речь про дебютник. :oops:


Top
 Profile  
 
Display posts from previous:  Sort by  
Post new topic Reply to topic  [ 73 posts ]  Go to page 1, 2, 3, 4  Next

All times are UTC + 3 hours


Who is online

Users browsing this forum: No registered users and 2 guests


You cannot post new topics in this forum
You cannot reply to topics in this forum
You cannot edit your posts in this forum
You cannot delete your posts in this forum
You cannot post attachments in this forum

Search for:
Яндекс.Метрика
Powered by phpBB © 2000, 2002, 2005, 2007 phpBB Group