\m/ 80's metal \m/

Информационно-аналитический форум "80 см пыли" (In Search We Trust) "У нас никто никуда не спешит"
Me For You - http://me-4u.com
It is currently 19 Apr 2019

All times are UTC + 3 hours

Spoiler
Chat - temporary registration for foreign users (please leave your application here)







Post new topic Reply to topic  [ 1 post ] 
Author Message
 
PostPosted: 30 Jan 2011 
5cm
User avatar
Joined: 01 Mar 2009
Posts: 61
Name: Сергей
Image

Year: 2008
Style: Heavy/Speed Metal
Country: United States of America
Audio: Flac + Cue + Log
Size: 109 Mb (Сканы в архиве)
Label: The End Records (TE116)


Quote:
EARLY MAN have their formula nailed down: riffs that detonate on impact, a rhythm section on fire and vocals that soar to Mt. Olympus. Three long years after their debut, the band returns finally with the fast, thrashy, straight-to-the-jugular attack of their EP, “Beware The Circling Fin.


Tracklist:

1. Sinking the Blade 03:17
2. Coiled Like a Snake 03:23
3. Beware the Circling Fin 05:28
4. Suck Me Dry 01:31
======================
Total playing time 13:39

[youtube]TTPR1f2BFdI&feature=related[/youtube]

log eac
Exact Audio Copy V0.99 prebeta 5 from 4. May 2009

EAC extraction logfile from 29. January 2011, 20:01

Early Man / Beware The Circling Fin

Used drive : _NEC DVD_RW ND-4551A Adapter: 0 ID: 0

Read mode : Secure
Utilize accurate stream : Yes
Defeat audio cache : Yes
Make use of C2 pointers : No

Read offset correction : 48
Overread into Lead-In and Lead-Out : No
Fill up missing offset samples with silence : Yes
Delete leading and trailing silent blocks : No
Null samples used in CRC calculations : Yes
Used interface : Installed external ASPI interface

Used output format : User Defined Encoder
Selected bitrate : 768 kBit/s
Quality : High
Add ID3 tag : No
Command line compressor : C:\Program Files\Exact Audio Copy\FLAC\FLAC.EXE
Additional command line options : -8 -V -T "ARTIST=%a" -T "TITLE=%t" -T "ALBUM=%g" -T "DATE=%y" -T "TRACKNUMBER=%n" -T "GENRE=%m" -T "COMMENT=%e" %s -o %d


TOC of the extracted CD

Track | Start | Length | Start sector | End sector
---------------------------------------------------------
1 | 0:00.00 | 3:17.13 | 0 | 14787
2 | 3:17.13 | 3:22.72 | 14788 | 30009
3 | 6:40.10 | 5:28.00 | 30010 | 54609
4 | 12:08.10 | 1:31.28 | 54610 | 61462


Range status and errors

Selected range

Filename D:\FLACattack\Early Man - Beware The Circling Fin.wav

Peak level 100.0 %
Range quality 100.0 %
Test CRC DC67E370
Copy CRC DC67E370
Copy OK

No errors occurred


AccurateRip summary

Track 1 accurately ripped (confidence 2) [247417BE]
Track 2 accurately ripped (confidence 2) [B15F38C3]
Track 3 accurately ripped (confidence 2) [D6B5132C]
Track 4 accurately ripped (confidence 2) [919611E4]

All tracks accurately ripped

End of status report


Отчет APE Batch Check
-----------------------------------------------------------------------
Filename : Early Man - Beware The Circling Fin.flac (98.40mb)
Source : CDDA (probability 100%)
Detect Mode : 4
Date : 29.01.2011 08-06-06
-----------------------------------------------------------------------
File Generated by Ape Batch Check 1.4a (build 29.04.2008)

Monkey's Audio : (c) Matthew T. Ashland; http://www.monkeysaudio.com/
auCDtect.exe : (c) Oleg Berngardt; Alexander Djourik; http://www.true-audio.com
Ape Batch Check : Bete Noire; http://betenoire.narod.ru/


NAROD


Top
 Profile  
 
Display posts from previous:  Sort by  
Post new topic Reply to topic  [ 1 post ] 

All times are UTC + 3 hours


Who is online

Users browsing this forum: No registered users and 1 guest


You cannot post new topics in this forum
You cannot reply to topics in this forum
You cannot edit your posts in this forum
You cannot delete your posts in this forum
You cannot post attachments in this forum

Search for:
Яндекс.Метрика
Powered by phpBB © 2000, 2002, 2005, 2007 phpBB Group