\m/ 80's metal \m/

Информационно-аналитический форум "80 см пыли" (In Search We Trust) "У нас никто никуда не спешит"
Me For You - http://me-4u.com
It is currently 18 Feb 2019

All times are UTC + 3 hours

Spoiler
Chat - temporary registration for foreign users (please leave your application here)







Post new topic Reply to topic  [ 21 posts ]  Go to page 1, 2  Next
Author Message
 
PostPosted: 08 Jan 2011 
Old Time Rock`n`Roll
User avatar
Joined: 23 Jun 2008
Posts: 3389
Lоcаtion: г.Ульяновск
Age: 40
Name: Константин
Elixir – The Son Of Odin (1986)

Image

Year: 1986
Style: NWOBHM, Heavy Metal
Country: Great Britain
Format: FLAC (image+log+cue) & mp3-320
Size: 313 Mb + 106 Mb

Tracklist
01. The Star Of Beshaan (05:30)
02. Pandora's Box (04:35)
03. Hold High The Flame (03:53)
04. Chariot Of The Gods (bonus) (2:31)
05. Children Of Tomorrow (04:53)
06. Trial By Fire (03:52)
07. Starflight (03:55)
08. Dead Man's Gold (04:21)
09. Treachery (Ride Like The Wind) (03:30)
10. Son Of Odin (05:57)

TPT – 43:00

Line-Up
Paul Taylor - Vocals
Phil Denton - Guitars
Norman Gordon - Guitars
Kevin Dobbs - Bass
Nigel Dobbs - Drums


Album Credits:
Produced: Elixir
Engineered: Martin Stansfield

Log
Exact Audio Copy V0.99 prebeta 5 from 4. May 2009

EAC extraction logfile from 8. January 2011, 17:30

Elixir / The Son Of Odin

Used drive : Optiarc DVD RW AD-7241S Adapter: 2 ID: 0

Read mode : Secure
Utilize accurate stream : Yes
Defeat audio cache : Yes
Make use of C2 pointers : No

Read offset correction : 48
Overread into Lead-In and Lead-Out : No
Fill up missing offset samples with silence : Yes
Delete leading and trailing silent blocks : No
Null samples used in CRC calculations : Yes
Used interface : Installed external ASPI interface

Used output format : Internal WAV Routines
Sample format : 44.100 Hz; 16 Bit; Stereo


TOC of the extracted CD

Track | Start | Length | Start sector | End sector
---------------------------------------------------------
1 | 0:00.01 | 5:30.34 | 1 | 24784
2 | 5:30.35 | 4:35.18 | 24785 | 45427
3 | 10:05.53 | 3:52.74 | 45428 | 62901
4 | 13:58.52 | 2:30.71 | 62902 | 74222
5 | 16:29.48 | 4:53.17 | 74223 | 96214
6 | 21:22.65 | 3:52.64 | 96215 | 113678
7 | 25:15.54 | 3:55.35 | 113679 | 131338
8 | 29:11.14 | 4:21.22 | 131339 | 150935
9 | 33:32.36 | 3:30.19 | 150936 | 166704
10 | 37:02.55 | 5:57.66 | 166705 | 193545


Range status and errors

Selected range

Filename D:\Elixir - The Son Of Odin.wav

Peak level 100.0 %
Range quality 99.9 %
Copy CRC 08A54937
Copy OK

No errors occurred


AccurateRip summary

Track 1 cannot be verified as accurate (confidence 1) [3B484430], AccurateRip returned [367FDDFF]
Track 2 cannot be verified as accurate (confidence 1) [AD221BCA], AccurateRip returned [417C65CD]
Track 3 cannot be verified as accurate (confidence 1) [88B0A8B4], AccurateRip returned [F4EC38CF]
Track 4 cannot be verified as accurate (confidence 1) [F66F15F2], AccurateRip returned [3770C4FA]
Track 5 cannot be verified as accurate (confidence 1) [FD80DDC0], AccurateRip returned [B80DBA91]
Track 6 cannot be verified as accurate (confidence 1) [24F99154], AccurateRip returned [B7B1439D]
Track 7 cannot be verified as accurate (confidence 1) [B747B9C9], AccurateRip returned [B717B65E]
Track 8 cannot be verified as accurate (confidence 1) [83EB99FE], AccurateRip returned [15F1F6E5]
Track 9 cannot be verified as accurate (confidence 1) [DC8DADD1], AccurateRip returned [025A8BC3]
Track 10 cannot be verified as accurate (confidence 1) [3FE4E960], AccurateRip returned [E670C913]

No tracks could be verified as accurate
You may have a different pressing from the one(s) in the database

End of status report


Cue
REM GENRE "Heavy Metal"
REM DATE 1986
REM DISCID 740A140A
REM COMMENT "ExactAudioCopy v0.99pb5"
PERFORMER "Elixir"
TITLE "The Son Of Odin"
FILE "Elixir - The Son Of Odin.wav" WAVE
TRACK 01 AUDIO
TITLE "The Star Of Beshaan"
PERFORMER "Elixir"
FLAGS DCP
INDEX 00 00:00:00
INDEX 01 00:00:01
TRACK 02 AUDIO
TITLE "Pandora's Box"
PERFORMER "Elixir"
FLAGS DCP
INDEX 01 05:30:35
TRACK 03 AUDIO
TITLE "Hold High The Flame"
PERFORMER "Elixir"
FLAGS DCP
INDEX 01 10:05:53
TRACK 04 AUDIO
TITLE "Chariot Of The Gods"
PERFORMER "Elixir"
FLAGS DCP
INDEX 01 13:58:52
TRACK 05 AUDIO
TITLE "Children Of Tomorrow"
PERFORMER "Elixir"
FLAGS DCP
INDEX 01 16:29:48
TRACK 06 AUDIO
TITLE "Trial By Fire"
PERFORMER "Elixir"
FLAGS DCP
INDEX 01 21:22:65
TRACK 07 AUDIO
TITLE "Starflight"
PERFORMER "Elixir"
FLAGS DCP
INDEX 01 25:15:54
TRACK 08 AUDIO
TITLE "Dead Man`s Gold"
PERFORMER "Elixir"
FLAGS DCP
INDEX 01 29:11:14
TRACK 09 AUDIO
TITLE "Treachery (Ride Like The Wind)"
PERFORMER "Elixir"
FLAGS DCP
INDEX 01 33:32:36
TRACK 10 AUDIO
TITLE "Son Of Odin"
PERFORMER "Elixir"
FLAGS DCP
INDEX 01 37:02:55


FLAC
narod-FLAC
ifolder-FLAC

mp3-320
megaupload-320

Один из самых поздних дебютов в НВБХМ, хотя НВБХМ как такового здесь почти и нет, классический хэви-метал 80-х с малой долей американcкого традиционного хэви-пауэра. Все здорово, но вокалисту немного не хватает чего-то, или выразительности или природных вокальных данных. Альбом на твердую четверку.
Переиздание 2004 года с одним бонус-треком. Рип собственный.


Last edited by oldrocker on 19 Feb 2012, edited 1 time in total.

Top
 Profile  
 
 
PostPosted: 08 Jan 2011 
А может смените мне статус?..
User avatar
Joined: 02 Feb 2009
Posts: 999
Lоcаtion: из Тулы
Age: 44
Name: Максим
спасибо
отведаем

_________________
КМА


Top
 Profile  
 
 
PostPosted: 08 Jan 2011 
Я набрал 1000 сообщений!
Joined: 12 Dec 2008
Posts: 1024
Lоcаtion: BULGARIA
Age: 40
Name: DIMITЪR
Супер яко!!!
Thanks! :true:


Top
 Profile  
 
 
PostPosted: 08 Jan 2011 
Хиппей (support team)
User avatar
Joined: 30 Jul 2007
Posts: 110315
Lоcаtion: Киев (Kyiv, UA)
Age: 45
Name: Andrey
:thanx:

mirror: Narod l M-Cloud

pics
Image

Image

Image

Image

Image

_________________


Top
 Profile E-mail  
 
 
PostPosted: 09 Jan 2011 
*** Умер ***
User avatar
Joined: 25 Apr 2009
Posts: 2188
Lоcаtion: Санкт-Петербург
Age: 33
Name: Кирилл
:thanx:


Top
 Profile E-mail  
 
 
PostPosted: 09 Jan 2011 
дядя Миша
User avatar
Joined: 17 Oct 2008
Posts: 3094
Lоcаtion: USSR
Age: 56
Name: Khy
Quote:
Рип собственный.


Ну , наконец то :true: :true: . Спасибо , обязятельно скачаю.


Top
 Profile  
 
 
PostPosted: 25 Jan 2011 
Прокъмитолист
User avatar
Joined: 12 Aug 2007
Posts: 6527
Lоcаtion: Санктъ-Петербуркъ
Age: 51
Name: Олекъ
спасибо, Костя! :thanx: :true:

_________________
прокъметол - это музыко, от которово есть прок (ы)


Top
 Profile  
 
 
PostPosted: 26 Jan 2011 
Работнечег
User avatar
Joined: 28 Aug 2007
Posts: 5712
Lоcаtion: г. Москва
Age: 29
Name: Дима
Спасибо, Костя! Хорошая группа, жалко что у них все песни почти среднетемповые почти и как-то малец однообразно под конец слушается.
P.S. Альбом этого года у них неплохой тож вышел, на твёрдую 4 :smile:


Top
 Profile E-mail  
 
 
PostPosted: 31 Mar 2014 
Хиппей (support team)
User avatar
Joined: 30 Jul 2007
Posts: 110315
Lоcаtion: Киев (Kyiv, UA)
Age: 45
Name: Andrey
church wrote:
жалко что у них все песни почти среднетемповые почти и как-то малец однообразно

Угу, и запоминающихся мелодий совсем нет :fingal: А так всё очень даже мило и аж вокал нравится. Но вот да, нет в его голосе некой выразительности. Как стишок длинный читает так и поёт :vic:

_________________


Top
 Profile E-mail  
 
 
PostPosted: 31 Mar 2014 
Анатолий
User avatar
Joined: 18 Oct 2008
Posts: 3343
Lоcаtion: Армавир
Age: 41
Name: Анатолий
Спасибо! :thanx: :true:

P.S. Кто придумал этот ч... дизайн???


Top
 Profile E-mail  
 
 
PostPosted: 31 Mar 2014 
Анатолий
User avatar
Joined: 18 Oct 2008
Posts: 3343
Lоcаtion: Армавир
Age: 41
Name: Анатолий
Кхм... я кажется того... промухал вовремя этот альбом...

Может кто загрузить снова?


Top
 Profile E-mail  
 
 
PostPosted: 31 Mar 2014 
Partisanen - nicht kapitulieren!!
User avatar
Joined: 25 Dec 2011
Posts: 6810
Lоcаtion: партизанские леса
Age: 46
Name: Владимир
Privateer wrote:
Кхм... я кажется того... промухал вовремя этот альбом...

Может кто загрузить снова?

забирай - mail.ru

_________________
One more beer and Heavy Metal and I'm just fine!
старовер, куле... слово "блин" - до сих пор через Ъ говорю


Top
 Profile E-mail  
 
 
PostPosted: 31 Mar 2014 
Partisanen - nicht kapitulieren!!
User avatar
Joined: 25 Dec 2011
Posts: 6810
Lоcаtion: партизанские леса
Age: 46
Name: Владимир
Андрей Саныч, ты мне новые глаза должен... :fingal:

_________________
One more beer and Heavy Metal and I'm just fine!
старовер, куле... слово "блин" - до сих пор через Ъ говорю


Top
 Profile E-mail  
 
 
PostPosted: 31 Mar 2014 
Анатолий
User avatar
Joined: 18 Oct 2008
Posts: 3343
Lоcаtion: Армавир
Age: 41
Name: Анатолий
Спасибо! :thanx:


Top
 Profile E-mail  
 
 
PostPosted: 01 Apr 2014 
Хиппей (support team)
User avatar
Joined: 30 Jul 2007
Posts: 110315
Lоcаtion: Киев (Kyiv, UA)
Age: 45
Name: Andrey
Кхм... я кажется того... промухал вовремя этот альбом...

Может кто загрузить снова?

Толя, прекращай употреблять чай вместе с пакетиками, а :arrow: viewtopic.php?p=117056#p117056 :cow:

_________________


Top
 Profile E-mail  
 
 
PostPosted: 01 Apr 2014 
Хиппей (support team)
User avatar
Joined: 30 Jul 2007
Posts: 110315
Lоcаtion: Киев (Kyiv, UA)
Age: 45
Name: Andrey
Спасибо! :thanx: :true:

P.S. Кто придумал этот ч... дизайн???

В самом внизу форума указано:
Quote:
Designed by Vjacheslav Trushkin for Free Forums/DivisionCore
:dance:

_________________


Top
 Profile E-mail  
 
 
PostPosted: 01 Apr 2014 
Прокъмитолист
User avatar
Joined: 12 Aug 2007
Posts: 6527
Lоcаtion: Санктъ-Петербуркъ
Age: 51
Name: Олекъ
Андрей Саныч, ты мне новые глаза должен... :fingal:

и мне пару :esel:

_________________
прокъметол - это музыко, от которово есть прок (ы)


Top
 Profile  
 
 
PostPosted: 01 Apr 2014 
Хиппей (support team)
User avatar
Joined: 30 Jul 2007
Posts: 110315
Lоcаtion: Киев (Kyiv, UA)
Age: 45
Name: Andrey
Минута отдыха для уставших глаз :lloo:

http://www.accept-archive.ru/forum/index.php смотрим, затем возвращаемся сюда.
Легче стало? :pardon:

_________________


Top
 Profile E-mail  
 
 
PostPosted: 01 Apr 2014 
Partisanen - nicht kapitulieren!!
User avatar
Joined: 25 Dec 2011
Posts: 6810
Lоcаtion: партизанские леса
Age: 46
Name: Владимир
дык зелёненький нормально... а вот тем-то вот гламурным - все два последих глаза чуть не повылазили :shok:

_________________
One more beer and Heavy Metal and I'm just fine!
старовер, куле... слово "блин" - до сих пор через Ъ говорю


Top
 Profile E-mail  
 
 
PostPosted: 01 Apr 2014 
Хиппей (support team)
User avatar
Joined: 30 Jul 2007
Posts: 110315
Lоcаtion: Киев (Kyiv, UA)
Age: 45
Name: Andrey
Этим?

Image

Не, ну этот то как раз норм :pardon:

_________________


Top
 Profile E-mail  
 
Display posts from previous:  Sort by  
Post new topic Reply to topic  [ 21 posts ]  Go to page 1, 2  Next

All times are UTC + 3 hours


Who is online

Users browsing this forum: No registered users and 4 guests


You cannot post new topics in this forum
You cannot reply to topics in this forum
You cannot edit your posts in this forum
You cannot delete your posts in this forum
You cannot post attachments in this forum

Search for:
Яндекс.Метрика
cron
Powered by phpBB © 2000, 2002, 2005, 2007 phpBB Group