\m/ 80's metal \m/

Информационно-аналитический форум "80 см пыли" (In Search We Trust) "У нас никто никуда не спешит"
Me For You - http://me-4u.com
It is currently 22 Aug 2019

All times are UTC + 3 hours

Spoiler
Chat - temporary registration for foreign users (please leave your application here)







Post new topic Reply to topic  [ 10 posts ] 
Author Message
 
PostPosted: 02 Nov 2010 
ыыыы
User avatar
Joined: 17 May 2009
Posts: 952
Lоcаtion: Пушкино, МО
Age: 40
Name: Дмитрий
Image


Жанр: Hard Rock
Происхождение исполнителя: Швеция
Год издания: 1983
Год издания данного носителя: 1986
Страна-производитель носителя: Япония
Аудио кодек: FLAC
Тип рипа: image+.cue
Битрейт аудио: lossless
Продолжительность: 40:12
Рип: Собственный
Лейбл: HOT/VICTOR
Каталоговый номер: VDP-1147
Матрица: VDP-1147-1-U1E 12 (JVC)

Треклист:
1. In the Future to Come 05:01
2. Farewell 04:16
3. Seven Doors Hotel 05:17
4. The King Will Return 05:35
5. Boyazont" (instrumental) 02:32
6. Children of This Time 04:56
7. Words of Wisdom 04:07
8. Paradize Bay 03:54
9. Memories 04:34

"Куй"
REM GENRE "Hard Rock"
REM DATE 1983
REM DISCID 69096C09
REM COMMENT "ExactAudioCopy v0.99pb5"
PERFORMER "Europe"
TITLE "Europe [VDP-1147]"
FILE "Europe - Europe [VDP-1147].flac" WAVE
TRACK 01 AUDIO
TITLE "In The Future To Come"
PERFORMER "Europe"
INDEX 00 00:00:00
INDEX 01 00:00:37
TRACK 02 AUDIO
TITLE "Farewell"
PERFORMER "Europe"
INDEX 01 05:01:60
TRACK 03 AUDIO
TITLE "Seven Doors Hotel"
PERFORMER "Europe"
INDEX 01 09:17:70
TRACK 04 AUDIO
TITLE "The King Will Return"
PERFORMER "Europe"
INDEX 00 14:33:45
INDEX 01 14:34:72
TRACK 05 AUDIO
TITLE "Boyazont"
PERFORMER "Europe"
INDEX 01 20:09:70
TRACK 06 AUDIO
TITLE "Children Of This Time"
PERFORMER "Europe"
INDEX 00 22:42:45
INDEX 01 22:43:07
TRACK 07 AUDIO
TITLE "Words Of Wisdom"
PERFORMER "Europe"
INDEX 01 27:38:50
TRACK 08 AUDIO
TITLE "Paradize Bay"
PERFORMER "Europe"
INDEX 00 31:43:03
INDEX 01 31:45:17
TRACK 09 AUDIO
TITLE "Memories"
PERFORMER "Europe"
INDEX 01 35:38:62


"Лог"
Exact Audio Copy V0.99 prebeta 5 from 4. May 2009

Отчёт EAC об извлечении, выполненном 2. ноября 2010, 10:23

Europe / Europe [VDP-1147]

Дисковод: Optiarc DVD RW AD-7200A Adapter: 1 ID: 0

Режим чтения : Достоверность
Использование точного потока : Да
Отключение кэша аудио : Да
Использование указателей C2 : Нет

Коррекция смещения при чтении : 48
Способность читать области Lead-in и Lead-out : Нет
Заполнение пропущенных сэмплов тишиной : Да
Удаление блоков с тишиной в начале и конце : Нет
При вычислениях CRC использовались нулевые сэмплы : Да
Интерфейс : Встроенный Win32-интерфейс для Win NT/2000

Выходной формат : Пользовательский кодировщик
Выбранный битрейт : 128 kBit/s
Качество : Высокий
Добавление ID3-тэга : Нет
Утилита сжатия : C:\Program Files\Exact Audio Copy\Flac\flac.exe
Дополнительные параметры : -8 -V -T "artist=%a" -T "title=%t" -T "album=%g" -T "date=%y" -T "tracknumber=%n" -T "genre=%m" -T "comment=EAC


TOC извлечённого CD

Трек | Старт | Длительность | Начальный сектор | Конечный сектор
---------------------------------------------------------------------
1 | 0:00.37 | 5:01.23 | 37 | 22634
2 | 5:01.60 | 4:16.10 | 22635 | 41844
3 | 9:17.70 | 5:17.02 | 41845 | 65621
4 | 14:34.72 | 5:34.73 | 65622 | 90744
5 | 20:09.70 | 2:33.12 | 90745 | 102231
6 | 22:43.07 | 4:55.43 | 102232 | 124399
7 | 27:38.50 | 4:06.42 | 124400 | 142891
8 | 31:45.17 | 3:53.45 | 142892 | 160411
9 | 35:38.62 | 4:34.05 | 160412 | 180966


Характеристики диапазона извлечения и сообщения об ошибках

Выбранный диапазон

Имя файла Y:\Музыка\Europe\1983 Europe\Europe - Europe [VDP-1147].wav

Пиковый уровень 96.4 %
Качество диапазона 100.0 %
CRC теста CB2DA8BE
CRC копии CB2DA8BE
Копирование... OK

Ошибок не произошло


AccurateRip: сводка

Трек 1 нет в базе данных
Трек 2 нет в базе данных
Трек 3 нет в базе данных
Трек 4 нет в базе данных
Трек 5 нет в базе данных
Трек 6 нет в базе данных
Трек 7 нет в базе данных
Трек 8 нет в базе данных
Трек 9 нет в базе данных

Ни одного трека нет в базе AccurateRip

Конец отчёта


Состав:
Joey Tempest: Vocals, acoustic guitars, keyboards
John Norum: Guitars, background vocals
John Levén: Bass
Tony Reno: Drums

VDP-1147

_________________
Витасу до Даймонда как Алсу до Руссоса | При переразмещении - спрашивать разрешение!!


Top
 Profile  
 
 
PostPosted: 02 Nov 2010 
А может смените мне статус?..
User avatar
Joined: 28 Oct 2009
Posts: 662
Lоcаtion: Sweden
Age: 32
Name: Emil
Great album! :true:

_________________
http://strappadometalblog.blogspot.com | http://heavymetalrarities.com/forum


Top
 Profile E-mail  
 
 
PostPosted: 02 Nov 2010 
Хиппей (support team)
User avatar
Joined: 30 Jul 2007
Posts: 114041
Lоcаtion: Киев (Kyiv, UA)
Age: 46
Name: Andrey
:true: :thanx:

mirror: iFolder l Narod l M-Cloud

_________________


Top
 Profile E-mail  
 
 
PostPosted: 02 Jul 2016 
Хиппей (support team)
User avatar
Joined: 30 Jul 2007
Posts: 114041
Lоcаtion: Киев (Kyiv, UA)
Age: 46
Name: Andrey
Впервые альбом слушаю. раньше был знаком с группой по 5-7 семи их хитам, крутящимся по радио и ТВ.

Альбом в меру крепкий, мелодичный хард с хорошими гитарными соляками радует даже сейчас. Но, оценить по достоинству явно не смогу - музыка даже для меня среднего пошиба. Что-то сродни третьему альбому Мальмстина, когда он ударился немного в попсовенький саунд. Или какой он там по счёту был не помню уж...
В общем, 5/10 пусть будет.

зы. Здесь хитов особых не обнаружил пока :vic:

_________________


Top
 Profile E-mail  
 
 
PostPosted: 02 Jul 2016 
Хиппей (support team)
User avatar
Joined: 30 Jul 2007
Posts: 114041
Lоcаtion: Киев (Kyiv, UA)
Age: 46
Name: Andrey
Image

Image

Image

_________________


Top
 Profile E-mail  
 
 
PostPosted: 02 Jul 2016 
Alive Again
User avatar
Joined: 17 Dec 2008
Posts: 4747
Lоcаtion: Курск Воронеж Оскол
Age: 45
Name: Дмитрий
АСаныч, ну а теперь послушай последний их альбом и сообщи своё мнение :thanx:


Top
 Profile E-mail  
 
 
PostPosted: 02 Jul 2016 
Power Metal Maniac
User avatar
Joined: 09 Aug 2008
Posts: 6824
Lоcаtion: Москва
Age: 41
Name: Егор
Андрей, здесь почти все хиты. Я терпеть не могу харду, но здесь все прекрасно. Конечно, это еще не супер-пупер аорщина 86, но все равно клево.
Хотя следующий самый лучший

_________________
Long Live Metal!


Top
 Profile  
 
 
PostPosted: 02 Jul 2016 
Хиппей (support team)
User avatar
Joined: 30 Jul 2007
Posts: 114041
Lоcаtion: Киев (Kyiv, UA)
Age: 46
Name: Andrey
Не-не, никакой АОРщины и хард-рока здесь нет, - мелодичный хардынхэви. Ничего особенного.
Разве что запись для 83 года очень качественная, все записано ровненько, правильно.
С хитами, действительно, тоже всё отлично. Вот только это не те хиты, которые с первой же прослушки въедаются в моск, а более сложные по структуре песни, которые лично мне удалось запомнить после 3-4 раз.
Спроси меня об этом альбоме через пару лет, чего же мне на нём запомнилось, отвечу явно - соляки какие-то гитарные там есть красивые и обложка.

Оценку на меняю, 5 из 10.

Дальше альбомы буду слушать по мере их поступления ко мне. Ну как обычно :dance:

зы. Ага ну и ещё вокал не такой козырный и выразительный здесь, как дальше будет. Например, сравнивая с песней "Рок тунайт". Или как её там правильно...

_________________


Top
 Profile E-mail  
 
 
PostPosted: 03 Jul 2016 
Power Metal Maniac
User avatar
Joined: 09 Aug 2008
Posts: 6824
Lоcаtion: Москва
Age: 41
Name: Егор
ну да, хардэнхэви больше, чем просто харды. ПРо АОР я о 86 говорил.
Песни сложнее, чем там - да. Но запомнились сразу и все. и открывашка, и 7 Doors Hotel и клевый инструментал - это ярко и классно.

_________________
Long Live Metal!


Top
 Profile  
 
 
PostPosted: 03 Jul 2016 
Хиппей (support team)
User avatar
Joined: 30 Jul 2007
Posts: 114041
Lоcаtion: Киев (Kyiv, UA)
Age: 46
Name: Andrey
EG Power wrote:
ПРо АОР я о 86 говорил.

И вот и там его нет :pardon:
EG Power wrote:
Но запомнились сразу и все. и открывашка, и 7 Doors Hotel и клевый инструментал - это ярко и классно.

Егор, ну вот да, ярко и классно, но не стопудово хитово.

Давай попробуем сравнить хит настоящий с... постепенным (потенциальным)? Натсадным, скорее всего, что-ли :scratch:

_________________


Top
 Profile E-mail  
 
Display posts from previous:  Sort by  
Post new topic Reply to topic  [ 10 posts ] 

All times are UTC + 3 hours


Who is online

Users browsing this forum: No registered users and 2 guests


You cannot post new topics in this forum
You cannot reply to topics in this forum
You cannot edit your posts in this forum
You cannot delete your posts in this forum
You cannot post attachments in this forum

Search for:
Яндекс.Метрика
Powered by phpBB © 2000, 2002, 2005, 2007 phpBB Group