\m/ 80's metal \m/

Информационно-аналитический форум "80 см пыли" (In Search We Trust) "У нас никто никуда не спешит"
Me For You - http://me-4u.com
It is currently 08 Dec 2019

All times are UTC + 3 hours

Spoiler
Chat - temporary registration for foreign users (please leave your application here)







Post new topic Reply to topic  [ 42 posts ]  Go to page Previous  1, 2, 3  Next
Author Message
 
PostPosted: 20 Jul 2010 
Хиппей (support team)
User avatar
Joined: 30 Jul 2007
Posts: 116009
Lоcаtion: Киев (Kyiv, UA)
Age: 46
Name: Andrey
Могу продать уже поставленного осла :al:

_________________


Top
 Profile E-mail  
 
 
PostPosted: 20 Jul 2010 
Motörheadache
User avatar
Joined: 04 Feb 2010
Posts: 1294
Lоcаtion: Впереди- горы,позади-степи
Age: 46
Name: Александр
Scatterbrain wrote:
Могу продать уже поставленного осла

Саныч...я на фуфыря медоффа еле наковырял,а ты говоришь осла, :fingal:

_________________
Eine Nation, Ein Land, Eine Schnaps!

Наш священный долг:защищать Родину,и соблюдать правила личной гигиены....!


Top
 Profile E-mail  
 
 
PostPosted: 20 Jul 2010 
Хиппей (support team)
User avatar
Joined: 30 Jul 2007
Posts: 116009
Lоcаtion: Киев (Kyiv, UA)
Age: 46
Name: Andrey
Тогда отдам дадом. Он суко, у мене весь овёс, купленный для попугайчика, сожрал :cry:
alexx1973 wrote:
на фуфыря медоффа

Кста, а у вас где его разливают? :shok: В домашних условиях? :vic:

_________________


Top
 Profile E-mail  
 
 
PostPosted: 22 Jul 2010 
дядя Миша
User avatar
Joined: 17 Oct 2008
Posts: 3202
Lоcаtion: USSR
Age: 57
Name: Khy
Спасибо , с осла взял лося :true:


Top
 Profile  
 
 
PostPosted: 22 Jul 2010 
Motörheadache
User avatar
Joined: 04 Feb 2010
Posts: 1294
Lоcаtion: Впереди- горы,позади-степи
Age: 46
Name: Александр
Scatterbrain wrote:
Кста, а у вас где его разливают? В домашних условиях?

:vic: :vic: хз...в магазах беру...терпимо вроде...
в наливайках попадается палённый до жути :bodun: :beee:

_________________
Eine Nation, Ein Land, Eine Schnaps!

Наш священный долг:защищать Родину,и соблюдать правила личной гигиены....!


Top
 Profile E-mail  
 
 
PostPosted: 02 Jan 2019 
5-speed satisfactor
User avatar
Joined: 16 Feb 2009
Posts: 3808
Lоcаtion: New York, USA
Age: 41
Name: Leonid
А может кто-то перезалить? На тракторе семян давно не было.

_________________
Death rules! Metal to all who oppose!


Top
 Profile  
 
 
PostPosted: 02 Jan 2019 
Хиппей (support team)
User avatar
Joined: 30 Jul 2007
Posts: 116009
Lоcаtion: Киев (Kyiv, UA)
Age: 46
Name: Andrey
Подождём в осле :kro:

Image

_________________


Top
 Profile E-mail  
 
 
PostPosted: 02 Jan 2019 
Хиппей (support team)
User avatar
Joined: 30 Jul 2007
Posts: 116009
Lоcаtion: Киев (Kyiv, UA)
Age: 46
Name: Andrey
Укачалось :dance:

Перезалью, как только.

_________________


Top
 Profile E-mail  
 
 
PostPosted: 02 Jan 2019 
Хиппей (support team)
User avatar
Joined: 30 Jul 2007
Posts: 116009
Lоcаtion: Киев (Kyiv, UA)
Age: 46
Name: Andrey
E-X-E - 1990 - Sicker Than I Thought [flac]

Image

mirror: Uloz l Narod l M-Cloud

log
Exact Audio Copy V0.99 prebeta 5 from 4. May 2009

EAC extraction logfile from 16. July 2010, 22:17

E-X-E / Sicker Than I Thought

Used drive : TSSTcorpCDDVDW SH-S203D Adapter: 1 ID: 1

Read mode : Secure
Utilize accurate stream : Yes
Defeat audio cache : Yes
Make use of C2 pointers : No

Read offset correction : 6
Overread into Lead-In and Lead-Out : No
Fill up missing offset samples with silence : Yes
Delete leading and trailing silent blocks : No
Null samples used in CRC calculations : Yes
Used interface : Native Win32 interface for Win NT & 2000

Used output format : Internal WAV Routines
Sample format : 44.100 Hz; 16 Bit; Stereo


TOC of the extracted CD

Track | Start | Length | Start sector | End sector
---------------------------------------------------------
1 | 0:00.00 | 5:33.12 | 0 | 24986
2 | 5:33.12 | 4:34.13 | 24987 | 45549
3 | 10:07.25 | 3:08.27 | 45550 | 59676
4 | 13:15.52 | 3:43.50 | 59677 | 76451
5 | 16:59.27 | 4:23.28 | 76452 | 96204
6 | 21:22.55 | 2:51.27 | 96205 | 109056
7 | 24:14.07 | 4:46.08 | 109057 | 130514
8 | 29:00.15 | 4:04.42 | 130515 | 148856
9 | 33:04.57 | 4:48.03 | 148857 | 170459
10 | 37:52.60 | 3:46.57 | 170460 | 187466


Range status and errors

Selected range

Filename D:\На телефон\НОВОЕ\E-X-E - Sicker Than I Thought.wav

Peak level 100.0 %
Range quality 100.0 %
Copy CRC 2A52E7F9
Copy OK

No errors occurred


AccurateRip summary

Track 1 not present in database
Track 2 not present in database
Track 3 not present in database
Track 4 not present in database
Track 5 not present in database
Track 6 not present in database
Track 7 not present in database
Track 8 not present in database
Track 9 not present in database
Track 10 not present in database

None of the tracks are present in the AccurateRip database

End of status report

cue
REM GENRE "Thrash Metal"
REM DATE 1990
REM DISCID 8B09C30A
REM COMMENT "ExactAudioCopy v0.99pb5"
PERFORMER "E-X-E"
TITLE "Sicker Than I Thought"
FILE "E-X-E - Sicker Than I Thought.flac" WAVE
TRACK 01 AUDIO
TITLE "Three Years Later: Dismembered"
PERFORMER "E-X-E"
INDEX 01 00:00:00
TRACK 02 AUDIO
TITLE "Another Chosen Life"
PERFORMER "E-X-E"
INDEX 01 05:33:12
TRACK 03 AUDIO
TITLE "Sexploitation"
PERFORMER "E-X-E"
INDEX 01 10:07:25
TRACK 04 AUDIO
TITLE "Innocent Betrayal"
PERFORMER "E-X-E"
INDEX 01 13:15:52
TRACK 05 AUDIO
TITLE "Chamber Of Sorrow"
PERFORMER "E-X-E"
INDEX 01 16:59:27
TRACK 06 AUDIO
TITLE "Second Coming"
PERFORMER "E-X-E"
INDEX 01 21:22:55
TRACK 07 AUDIO
TITLE "Horrors Of The Mind"
PERFORMER "E-X-E"
INDEX 01 24:14:07
TRACK 08 AUDIO
TITLE "No One To Pray To"
PERFORMER "E-X-E"
INDEX 01 29:00:15
TRACK 09 AUDIO
TITLE "I'm Sanctified"
PERFORMER "E-X-E"
INDEX 01 33:04:57
TRACK 10 AUDIO
TITLE "Infected"
PERFORMER "E-X-E"
INDEX 01 37:52:60

Image

Image

Это рип с Трахтора :arrow: https://rutracker.org/forum/viewtopic.php?t=3066453 :thanx:

_________________


Top
 Profile E-mail  
 
 
PostPosted: 02 Jan 2019 
Хиппей (support team)
User avatar
Joined: 30 Jul 2007
Posts: 116009
Lоcаtion: Киев (Kyiv, UA)
Age: 46
Name: Andrey
Чёт как-то неоднородно альбом звучит :scratch:

Но сама музыка уфффф как мощна и скоропостижна :lob: :lob: :lob:

8/10

_________________


Top
 Profile E-mail  
 
 
PostPosted: 02 Jan 2019 
5-speed satisfactor
User avatar
Joined: 16 Feb 2009
Posts: 3808
Lоcаtion: New York, USA
Age: 41
Name: Leonid
Я не дома. На работе. У нас хмурое утро. Пиду домой, скачаю. Спасибо. Это правильный рип? На тракторе жалобы были, да и сидов нет.

_________________
Death rules! Metal to all who oppose!


Top
 Profile  
 
 
PostPosted: 02 Jan 2019 
Хиппей (support team)
User avatar
Joined: 30 Jul 2007
Posts: 116009
Lоcаtion: Киев (Kyiv, UA)
Age: 46
Name: Andrey
metaleonid wrote:
Это правильный рип? На тракторе жалобы были, да и сидов нет.

Не-а, это тот самый неправильный рип :dance:

_________________


Top
 Profile E-mail  
 
 
PostPosted: 03 Jan 2019 
5-speed satisfactor
User avatar
Joined: 16 Feb 2009
Posts: 3808
Lоcаtion: New York, USA
Age: 41
Name: Leonid
Кривой рип это здесь. A здесь всё в порядке. Спасибо, Андрюшич!

_________________
Death rules! Metal to all who oppose!


Top
 Profile  
 
 
PostPosted: 03 Jan 2019 
Хиппей (support team)
User avatar
Joined: 30 Jul 2007
Posts: 116009
Lоcаtion: Киев (Kyiv, UA)
Age: 46
Name: Andrey
Пасиба, Лёнь, шо ты мне на него ссылку не тыкнул =) :thanx:

_________________


Top
 Profile E-mail  
 
 
PostPosted: 03 Jan 2019 
5-speed satisfactor
User avatar
Joined: 16 Feb 2009
Posts: 3808
Lоcаtion: New York, USA
Age: 41
Name: Leonid
Ща слухать буду 2ой. Я только первый знаю пока. Сравним.

_________________
Death rules! Metal to all who oppose!


Top
 Profile  
 
 
PostPosted: 03 Jan 2019 
Хиппей (support team)
User avatar
Joined: 30 Jul 2007
Posts: 116009
Lоcаtion: Киев (Kyiv, UA)
Age: 46
Name: Andrey
Второй опупенный - скорости появились трушные :true: :true: :true:

_________________


Top
 Profile E-mail  
 
 
PostPosted: 03 Jan 2019 
Хиппей (support team)
User avatar
Joined: 30 Jul 2007
Posts: 116009
Lоcаtion: Киев (Kyiv, UA)
Age: 46
Name: Andrey
Хотя полистал рейтинги - почему-то первый больше людЯм нравится :vic:

_________________


Top
 Profile E-mail  
 
 
PostPosted: 03 Jan 2019 
5-speed satisfactor
User avatar
Joined: 16 Feb 2009
Posts: 3808
Lоcаtion: New York, USA
Age: 41
Name: Leonid
Ну на первом 5ый трек Slayer. Это ж шедевр

_________________
Death rules! Metal to all who oppose!


Top
 Profile  
 
 
PostPosted: 03 Jan 2019 
Хиппей (support team)
User avatar
Joined: 30 Jul 2007
Posts: 116009
Lоcаtion: Киев (Kyiv, UA)
Age: 46
Name: Andrey
Ой, а этот звучит как грязная люминивая тарелка :yyy: :esel: :esel: :esel:

Но вот что занятно - первый альбом представляет из себя эдакий техничный павер-трэш почти без хитов, а второй, обана, и перешла группа сразу в спидовому культурному трэшаку не в ущерб качеству :lob: :lob: :lob:

_________________


Top
 Profile E-mail  
 
 
PostPosted: 03 Jan 2019 
Хиппей (support team)
User avatar
Joined: 30 Jul 2007
Posts: 116009
Lоcаtion: Киев (Kyiv, UA)
Age: 46
Name: Andrey
Тьху, етить, это я снова альбомы перепутал. 90-й звучит как маромойка , а до того альбом шикарный я слушал.
Как его название? :cry:

_________________


Top
 Profile E-mail  
 
Display posts from previous:  Sort by  
Post new topic Reply to topic  [ 42 posts ]  Go to page Previous  1, 2, 3  Next

All times are UTC + 3 hours


Who is online

Users browsing this forum: No registered users and 1 guest


You cannot post new topics in this forum
You cannot reply to topics in this forum
You cannot edit your posts in this forum
You cannot delete your posts in this forum
You cannot post attachments in this forum

Search for:
Яндекс.Метрика
Powered by phpBB © 2000, 2002, 2005, 2007 phpBB Group