\m/ 80's metal \m/

Информационно-аналитический форум "80 см пыли" (In Search We Trust) "У нас никто никуда не спешит"
Me For You - http://me-4u.com
It is currently 12 Dec 2019

All times are UTC + 3 hours

Spoiler
Chat - temporary registration for foreign users (please leave your application here)







Post new topic Reply to topic  [ 19 posts ] 
Author Message
 
PostPosted: 06 Apr 2010 
ыыыы
User avatar
Joined: 17 May 2009
Posts: 952
Lоcаtion: Пушкино, МО
Age: 41
Name: Дмитрий
Europe - Wings Of Tomorrow 1984 [VDP-29]

Image

Жанр: Hard Rock
Происхождение исполнителя: Швеция
Год издания: 1984
Год издания данного носителя: 1984
Страна-производитель носителя: Япония
Аудио кодек: FLAC
Тип рипа: image+.cue
Битрейт аудио: lossless
Продолжительность: 39:18
Рип: Собственный
Лейбл: HOT/VICTOR
Каталоговый номер: VDP-29
Матрица: VDP-29-1-V5C 11 (JVC)

Треклист:
1. Stormwind 04:33
2. Scream of Anger 04:08
3. Open Your Heart 04:12
4. Treated Bad Again 03:47
5. Aphasia [instrumental] 02:33
6. Wings of Tomorrow 04:00
7. Wasted Time 04:11
8. Lyin' Eyes 03:48
9. Dreamer 04:29
10. Dance the Night Away 03:37

"Куй"
REM GENRE "Hard Rock"
REM DATE 1984
REM DISCID 7C09360A
REM COMMENT "ExactAudioCopy v0.99pb5"
PERFORMER "EUROPE"
TITLE "Wings Of Tomorrow [VDP-29]"
FILE "EUROPE - Wings Of Tomorrow [VDP-29].flac" WAVE
TRACK 01 AUDIO
TITLE "Stormwind"
PERFORMER "EUROPE"
INDEX 00 00:00:00
INDEX 01 00:00:37
TRACK 02 AUDIO
TITLE "Scream Of Anger"
PERFORMER "EUROPE"
INDEX 00 04:31:53
INDEX 01 04:33:55
TRACK 03 AUDIO
TITLE "Open Your Heart"
PERFORMER "EUROPE"
INDEX 00 08:39:03
INDEX 01 08:41:22
TRACK 04 AUDIO
TITLE "Treated Bad Again"
PERFORMER "EUROPE"
INDEX 00 12:52:38
INDEX 01 12:53:32
TRACK 05 AUDIO
TITLE "Aphasia"
PERFORMER "EUROPE"
INDEX 00 16:39:25
INDEX 01 16:39:72
TRACK 06 AUDIO
TITLE "Wings Of Tomorrow"
PERFORMER "EUROPE"
INDEX 00 19:12:03
INDEX 01 19:13:22
TRACK 07 AUDIO
TITLE "Wasted Time"
PERFORMER "EUROPE"
INDEX 00 23:12:53
INDEX 01 23:13:57
TRACK 08 AUDIO
TITLE "Lyin' Eyes"
PERFORMER "EUROPE"
INDEX 00 27:23:50
INDEX 01 27:24:45
TRACK 09 AUDIO
TITLE "Dreamer"
PERFORMER "EUROPE"
INDEX 00 31:12:23
INDEX 01 31:12:52
TRACK 10 AUDIO
TITLE "Dance The Night Away"
PERFORMER "EUROPE"
INDEX 00 35:40:68
INDEX 01 35:41:45

"Лог"
Exact Audio Copy V0.99 prebeta 5 from 4. May 2009

EAC extraction logfile from 6. April 2010, 9:46

EUROPE / Wings Of Tomorrow [VDP-29]

Used drive : Optiarc DVD RW AD-7200A Adapter: 0 ID: 0

Read mode : Secure
Utilize accurate stream : Yes
Defeat audio cache : Yes
Make use of C2 pointers : No

Read offset correction : 48
Overread into Lead-In and Lead-Out : No
Fill up missing offset samples with silence : Yes
Delete leading and trailing silent blocks : No
Null samples used in CRC calculations : Yes
Used interface : Native Win32 interface for Win NT & 2000

Used output format : User Defined Encoder
Selected bitrate : 128 kBit/s
Quality : High
Add ID3 tag : No
Command line compressor : C:\Program Files\Exact Audio Copy\Flac\flac.exe
Additional command line options : -8 -V -T "artist=%a" -T "title=%t" -T "album=%g" -T "date=%y" -T "tracknumber=%n" -T "genre=%m" -T "comment=EAC 0.9beta4 / FLAC 1.1.0 q6" %s


TOC of the extracted CD

Track | Start | Length | Start sector | End sector
---------------------------------------------------------
1 | 0:00.37 | 4:33.18 | 37 | 20529
2 | 4:33.55 | 4:07.42 | 20530 | 39096
3 | 8:41.22 | 4:12.10 | 39097 | 58006
4 | 12:53.32 | 3:46.40 | 58007 | 74996
5 | 16:39.72 | 2:33.25 | 74997 | 86496
6 | 19:13.22 | 4:00.35 | 86497 | 104531
7 | 23:13.57 | 4:10.63 | 104532 | 123344
8 | 27:24.45 | 3:48.07 | 123345 | 140451
9 | 31:12.52 | 4:28.68 | 140452 | 160619
10 | 35:41.45 | 3:37.20 | 160620 | 176914


Range status and errors

Selected range

Filename Y:\Музыка\Europe\1984 Wings Of Tomorrow\EUROPE - Wings Of Tomorrow [VDP-29].wav

Peak level 100.0 %
Range quality 100.0 %
Copy CRC BA9AEAF1
Copy OK

No errors occurred

End of status report


Состав:
Joey Tempest: Vocals, acoustic guitars, keyboards
John Norum: Guitars, background vocals
John Levén: Bass
Tony Reno: Drums

VDP-29


Europe ‎- Wings Of Tomorrow 1984 [CDEPC 26384]

Image

Жанр: Hard Rock
Происхождение исполнителя: Швеция
Год издания: 1984
Год издания данного носителя: 1985
Страна-производитель носителя: Япония для Европы
Аудио кодек: FLAC
Тип рипа: image+.cue
Битрейт аудио: lossless
Продолжительность: 39:10
Рип: Собственный
Лейбл: HOT/EPIC
Каталоговый номер: CDEPC 26384
Матрица: DIDP-10886 +++++ (SONY)

Треклист:
1. Stormwind 04:32
2. Scream of Anger 04:06
3. Open Your Heart 04:11
4. Treated Bad Again 03:46
5. Aphasia [instrumental] 02:33
6. Wings of Tomorrow 04:00
7. Wasted Time 04:10
8. Lyin' Eyes 03:47
9. Dreamer 04:28
10. Dance the Night Away 03:36

"Куй"
REM GENRE "Hard Rock"
REM DATE 1984
REM DISCID 86092D0A
REM COMMENT "ExactAudioCopy v0.99pb5"
PERFORMER "Europe"
TITLE "Wings of Tomorrow [CDEPC 26384]"
FILE "Europe - Wings of Tomorrow [CDEPC 26384].flac" WAVE
TRACK 01 AUDIO
TITLE "Stormwind"
PERFORMER "Europe"
INDEX 01 00:00:00
TRACK 02 AUDIO
TITLE "Scream of Anger"
PERFORMER "Europe"
INDEX 00 04:29:62
INDEX 01 04:32:17
TRACK 03 AUDIO
TITLE "Open Your Heart"
PERFORMER "Europe"
INDEX 00 08:36:65
INDEX 01 08:38:50
TRACK 04 AUDIO
TITLE "Treated Bad Again"
PERFORMER "Europe"
INDEX 00 12:47:07
INDEX 01 12:49:32
TRACK 05 AUDIO
TITLE "Aphasia"
PERFORMER "Europe"
INDEX 00 16:33:57
INDEX 01 16:35:52
TRACK 06 AUDIO
TITLE "Wings of Tomorrow"
PERFORMER "Europe"
INDEX 00 19:06:17
INDEX 01 19:08:25
TRACK 07 AUDIO
TITLE "Wasted Time"
PERFORMER "Europe"
INDEX 00 23:06:42
INDEX 01 23:07:70
TRACK 08 AUDIO
TITLE "Lyin' Eyes"
PERFORMER "Europe"
INDEX 00 27:15:65
INDEX 01 27:18:02
TRACK 09 AUDIO
TITLE "Dreamer"
PERFORMER "Europe"
INDEX 00 31:04:10
INDEX 01 31:05:05
TRACK 10 AUDIO
TITLE "Dance the Night Away"
PERFORMER "Europe"
INDEX 00 35:30:62
INDEX 01 35:33:32

"Лог"
Exact Audio Copy V0.99 prebeta 5 from 4. May 2009

Отчёт EAC об извлечении, выполненном 20. сентября 2010, 10:39

Europe / Wings of Tomorrow [CDEPC 26384]

Дисковод: Optiarc DVD RW AD-7200A Adapter: 1 ID: 0

Режим чтения : Достоверность
Использование точного потока : Да
Отключение кэша аудио : Да
Использование указателей C2 : Нет

Коррекция смещения при чтении : 48
Способность читать области Lead-in и Lead-out : Нет
Заполнение пропущенных сэмплов тишиной : Да
Удаление блоков с тишиной в начале и конце : Нет
При вычислениях CRC использовались нулевые сэмплы : Да
Интерфейс : Встроенный Win32-интерфейс для Win NT/2000

Выходной формат : Пользовательский кодировщик
Выбранный битрейт : 128 kBit/s
Качество : Высокий
Добавление ID3-тэга : Нет
Утилита сжатия : C:\Program Files\Exact Audio Copy\Flac\flac.exe
Дополнительные параметры : -8 -V -T "artist=%a" -T "title=%t" -T "album=%g" -T "date=%y" -T "tracknumber=%n" -T "genre=%m" -T "comment=EAC


TOC извлечённого CD

Трек | Старт | Длительность | Начальный сектор | Конечный сектор
---------------------------------------------------------------------
1 | 0:00.00 | 4:32.17 | 0 | 20416
2 | 4:32.17 | 4:06.33 | 20417 | 38899
3 | 8:38.50 | 4:10.57 | 38900 | 57706
4 | 12:49.32 | 3:46.20 | 57707 | 74676
5 | 16:35.52 | 2:32.48 | 74677 | 86124
6 | 19:08.25 | 3:59.45 | 86125 | 104094
7 | 23:07.70 | 4:10.07 | 104095 | 122851
8 | 27:18.02 | 3:47.03 | 122852 | 139879
9 | 31:05.05 | 4:28.27 | 139880 | 160006
10 | 35:33.32 | 3:36.25 | 160007 | 176231


Характеристики диапазона извлечения и сообщения об ошибках

Выбранный диапазон

Имя файла Y:\Музыка\Europe\1984 Wings of Tomorrow\Europe - Wings of Tomorrow [CDEPC 26384].wav

Пиковый уровень 95.4 %
Качество диапазона 100.0 %
CRC копии 76CD6E97
Копирование... OK

Ошибок не произошло


AccurateRip: сводка

Трек 1 точное извлечение (доверие 5) [D97FE4E8]
Трек 2 точное извлечение (доверие 5) [90C3D035]
Трек 3 точное извлечение (доверие 5) [18EDCD63]
Трек 4 точное извлечение (доверие 5) [7B3621EB]
Трек 5 точное извлечение (доверие 5) [A848E55F]
Трек 6 точное извлечение (доверие 5) [A4EE56FB]
Трек 7 точное извлечение (доверие 5) [8D7E77F6]
Трек 8 точное извлечение (доверие 5) [9353C699]
Трек 9 точное извлечение (доверие 5) [439F8B6B]
Трек 10 точное извлечение (доверие 5) [C36ACA2B]

Все треки извлечены точно

Конец отчёта


Состав:
Joey Tempest: Vocals, acoustic guitars, keyboards
John Norum: Guitars, background vocals
John Levén: Bass
Tony Reno: Drums

CDEPC 26384

_________________
Витасу до Даймонда как Алсу до Руссоса | При переразмещении - спрашивать разрешение!!


Last edited by iezuit on 20 Sep 2010, edited 5 times in total.

Top
 Profile  
 
 
PostPosted: 06 Apr 2010 
HAMMER
User avatar
Joined: 16 May 2009
Posts: 5488
Lоcаtion: Тверь
Age: 47
Name: Александр
:thanx:


Top
 Profile E-mail  
 
 
PostPosted: 06 Apr 2010 
хард н хэвщик (support team)
User avatar
Joined: 02 Jun 2008
Posts: 16881
Lоcаtion: Н.Новгород
Age: 32
Name: Артем
Люблю этот альбом :true:


Top
 Profile  
 
 
PostPosted: 06 Apr 2010 
Power Metal Maniac
User avatar
Joined: 09 Aug 2008
Posts: 6997
Lоcаtion: Москва
Age: 41
Name: Егор
лучший альбом Европейцев, ИМХО) Даже паверную вещь сыграли - Scream of Anger )

_________________
Long Live Metal!


Top
 Profile  
 
 
PostPosted: 15 Apr 2010 
Дежурный по КУПу
User avatar
Joined: 17 Aug 2007
Posts: 5871
Age: 51
Name: Ге
Снова и снова продолжаю удивляться разнообразию японских обишек :shok:
Спасибо за европу :true:

_________________
http://jp-mania.ru/
http://jp-tourdates.ucoz.ru/


Top
 Profile  
 
 
PostPosted: 20 Sep 2010 
ыыыы
User avatar
Joined: 17 May 2009
Posts: 952
Lоcаtion: Пушкино, МО
Age: 41
Name: Дмитрий
Дополнил

_________________
Витасу до Даймонда как Алсу до Руссоса | При переразмещении - спрашивать разрешение!!


Top
 Profile  
 
 
PostPosted: 20 Sep 2010 
Хиппей (support team)
User avatar
Joined: 30 Jul 2007
Posts: 116090
Lоcаtion: Киев (Kyiv, UA)
Age: 46
Name: Andrey
iezuit wrote:
Дополнил

Опа, спасибо, Дим :thanx:
А второй альбом кроме года, матрицы и безобишки чем отличается еще?

mirror: iFolder l Narod l M-Cloud

_________________


Top
 Profile E-mail  
 
 
PostPosted: 20 Sep 2010 
Доктор энтомологии
User avatar
Joined: 22 Jan 2009
Posts: 9980
Lоcаtion: Даугавпилс
Age: 44
Name: Алексей
продолжительностью отличается :umnik: на 8 секунд короче


Top
 Profile  
 
 
PostPosted: 20 Sep 2010 
ыыыы
User avatar
Joined: 17 May 2009
Posts: 952
Lоcаtion: Пушкино, МО
Age: 41
Name: Дмитрий
Второй альбом сделан для европейского рынка - забыл указать :fingal:

_________________
Витасу до Даймонда как Алсу до Руссоса | При переразмещении - спрашивать разрешение!!


Top
 Profile  
 
 
PostPosted: 20 Sep 2010 
Хиппей (support team)
User avatar
Joined: 30 Jul 2007
Posts: 116090
Lоcаtion: Киев (Kyiv, UA)
Age: 46
Name: Andrey
iezuit wrote:
альбом сделан для европейского рынка

То есть, японцы не имели права его покупать? :umnik:

_________________


Top
 Profile E-mail  
 
 
PostPosted: 20 Sep 2010 
ыыыы
User avatar
Joined: 17 May 2009
Posts: 952
Lоcаtion: Пушкино, МО
Age: 41
Name: Дмитрий
да почему? для Японии делал Виктор, для Европы издал Эпик, который напечатал на Сони-это ассоциированные с CBS лэйблы

_________________
Витасу до Даймонда как Алсу до Руссоса | При переразмещении - спрашивать разрешение!!


Top
 Profile  
 
 
PostPosted: 20 Sep 2010 
ыыыы
User avatar
Joined: 17 May 2009
Posts: 952
Lоcаtion: Пушкино, МО
Age: 41
Name: Дмитрий
Хм..JVС пресс звонче, чем Сони, но у Сони уровень выше. У кого как?

_________________
Витасу до Даймонда как Алсу до Руссоса | При переразмещении - спрашивать разрешение!!


Top
 Profile  
 
 
PostPosted: 20 Sep 2010 
Персональный статус
Joined: 14 May 2010
Posts: 236
Age: 38
Name: Денис
Кхе-кхе, пока не слушал, но по спектрам альбомы разные как будто. :true:

Oго, скачал этот альбом из Дискографии на рутрекере, согласно сканам сделан в Австрии (матрица: CDEPC 26384 12) вот его волна... :fingal:

Image

вот и думай теперь что всё это значит, может в той раздаче что-то другое раздают, а может быть японцы снова всех сделали. :umnik:


Last edited by disabled on 21 Sep 2010, edited 2 times in total.

Top
 Profile  
 
 
PostPosted: 20 Sep 2010 
ыыыы
User avatar
Joined: 17 May 2009
Posts: 952
Lоcаtion: Пушкино, МО
Age: 41
Name: Дмитрий
Значит и правильно на слух показалось, что Виктор тоньше прописал.

_________________
Витасу до Даймонда как Алсу до Руссоса | При переразмещении - спрашивать разрешение!!


Top
 Profile  
 
 
PostPosted: 20 Sep 2010 
Персональный статус
Joined: 14 May 2010
Posts: 236
Age: 38
Name: Денис
Прослушал. ты прав, виктор - такой металлический, а сонька басовитая.
забавно, похоже этот тот самый случай, когда запись явно делалась специально для Японских и Европейских ушей. :meloman:
часто встречаю мнение в сети что дескать "не люблю я этих звонких японцев с явно выраженными тарелками (на переднем плане)" :nunu: теперь понял о чём речь шла.


Last edited by disabled on 21 Sep 2010, edited 1 time in total.

Top
 Profile  
 
 
PostPosted: 21 Sep 2010 
Труъ
User avatar
Joined: 14 Jul 2010
Posts: 104
Lоcаtion: Украина, Донецк
Age: 34
Name: Санёк
Спасибо за железные куриные крылышки. К пивку в самый раз. Мой вывод такой: японческий Витёк режет по ушам как бензопила, низов нет вообсче, создаётся навязчивое ощущение присутствия в цеху самурайской лесопилки. Эпик более сбалансированно и ровно звучит. Басов поболее, можно дома дискотеку восьмидесятых устраивать. Что и было сделано, соседи остались довольны эффектом! Ура Дмитрию за разнообразие :true:

_________________
Rock 'N' Roll is the only thing that keeps me from breaking apart (c)


Top
 Profile E-mail  
 
 
PostPosted: 21 Sep 2010 
ыыыы
User avatar
Joined: 17 May 2009
Posts: 952
Lоcаtion: Пушкино, МО
Age: 41
Name: Дмитрий
disabled wrote:
Oго, скачал этот альбом из Дискографии на рутрекере, согласно сканам сделан в Австрии (матрица: CDEPC 26384 12) вот его волна... :fingal:

вот и думай теперь что всё это значит, может в той раздаче что-то другое раздают, а может быть японцы снова всех сделали. :umnik:

Я диск этот не видел в глаза, но скорее всего он сделан на DADC Австрия, причём год издания может быть любой, т.к насколько я помню этот завод только в 88 году запустили. Не доверяю я этим прессам :pardon:
А звонкие записи я как раз и люблю))

_________________
Витасу до Даймонда как Алсу до Руссоса | При переразмещении - спрашивать разрешение!!


Top
 Profile  
 
 
PostPosted: 08 Jul 2016 
консэрваторъ
User avatar
Joined: 11 Aug 2007
Posts: 17500
Lоcаtion: Псков
Age: 45
Name: Сергей
iezuit wrote:
Год издания данного носителя: 1985
Страна-производитель носителя: Япония для Европы
Аудио кодек: FLAC
Тип рипа: image+.cue
Битрейт аудио: lossless
Продолжительность: 39:10
Рип: Собственный
Лейбл: HOT/EPIC
Каталоговый номер: CDEPC 26384

Меня терзают смутные сомнения по поводу года издания этого цида... С эти катнумбером CDEPC 26384 цид за 85-ый не числится... :scratch:
https://www.discogs.com/Europe-Wings-Of ... ster/61590

_________________
THRASH 'EM ALL


Top
 Profile E-mail  
 
 
PostPosted: 08 Jul 2016 
консэрваторъ
User avatar
Joined: 11 Aug 2007
Posts: 17500
Lоcаtion: Псков
Age: 45
Name: Сергей
:rem:
Обсуждение творчества коллектива в целом и в частностях продолжаем в обозе... Все посты уехали туда... начало продолжения здесь :arrov: viewtopic.php?p=268175#p268175

_________________
THRASH 'EM ALL


Top
 Profile E-mail  
 
Display posts from previous:  Sort by  
Post new topic Reply to topic  [ 19 posts ] 

All times are UTC + 3 hours


Who is online

Users browsing this forum: No registered users and 1 guest


You cannot post new topics in this forum
You cannot reply to topics in this forum
You cannot edit your posts in this forum
You cannot delete your posts in this forum
You cannot post attachments in this forum

Search for:
Яндекс.Метрика
Powered by phpBB © 2000, 2002, 2005, 2007 phpBB Group