\m/ 80's metal \m/

Информационно-аналитический форум "80 см пыли" (In Search We Trust) "У нас никто никуда не спешит"
Me For You - http://me-4u.com
It is currently 12 Dec 2019

All times are UTC + 3 hours

Spoiler
Chat - temporary registration for foreign users (please leave your application here)







Post new topic Reply to topic  [ 7 posts ] 
Author Message
 
PostPosted: 10 Nov 2009 
ыыыы
User avatar
Joined: 17 May 2009
Posts: 952
Lоcаtion: Пушкино, МО
Age: 41
Name: Дмитрий
Europe 1988 Out Of This World JAPAN CD 1st Press


Image


По материалам журнала "Метал Хаммер":

Продолжение.

- Но что значит неудача? – жалуется Джой Темпест. – По сравнению с предыдущим 2,3 миллиона проданных дисков, конечно, мало. Но ведь сам по себе этот результат не так уж плох. Жаль, что мало кто смотрит на достоинства самого диска, все почему-то только сравнивают количество проданных экземпляров…
Последний диск «Европы» - “Prisoners In Paradise” - появился лишь в конце 1991 года. Для мира современной музыки три года - это слишком большая пауза. Ведь двухгодичный интервал между первой и второй пластинками во многом способствовал тому, что диск в 1988 году не попал в чарты и, как следствие, плохо продавался. Конечно, были и другие причины «провала» этого злополучного диска. Вернее, виноват ряд неудачно сложившихся обстоятельств. В 1988 году, летом, когда «Европа» принимала участие в серии концертов по Америке группы «Деф Леппард», всё было, казалось, в порядке. Диск только что появился, публика принимала новые композиции с одобрением, пресса разливалась соловьём. Затем ребята из «Леппард» предложили им поездить с ними ещё три месяца. «Европа» было согласилась, но тут вмешался менеджер Томас Эрдтманн. Он решил, что продолжение турне стало бы неправильным стратегическим ходом и посоветовал группе с благодарностью отклонить предложение.
Но очень скоро стало ясно, что это решение было ошибкой. Как уже было сказано, ни одна из композиций с этого альбома не попала в чарты, а «живых» концертов, которые могли как-то компенсировать этот пробел и помочь наверстать упущенное, тоже не было. Первые сомнения в правильности описанного решения возникли у команды в январе 1989 года, перед началом турне по Европе, а во время его стало ясно, что “Out Of This World” поставили их на грань коммерческого краха.
От услуг «недальновидного» менеджера ребята решили отказаться. Его место занял американец Херби Херберт.
Кое-как проведя еще одно турне по штатам, группа начала подготовку песен для следующего альбома. До августа было написано около дюжины композиций. Некоторые из них Европа попробовала, разогревая публику перед одним из концертов «Бон Жови». Реакция была неплохой, и ребята решили, что настало время отправляться в студию.

Начало

Recording line-up:

Joey Tempest: vocals, piano on "Tomorrow"
Kee Marcello: guitars, background vocals
John Leven: bass
Mic Michaeli: keyboards, background vocals
Ian Haugland: drums, background vocals
Keith Morell: background vocals on "Coast to Coast" and "Just the Beginning"

Songs:

1. Superstitious 4:35
2. Let the Good Times Rock 4:04
3. Open Your Heart 4:04
4. More Than Meets the Eye 3:21
5. Coast to Coast 4:01
6. Ready or Not 4:05
7. Sign of the Times 4:15
8. Just the Beginning 4:32
9. Never Say Die 4:00
10. Lights and Shadows 4:03
11. Tower's Callin' 3:50
12. Tomorrow 3:07
====================
Playing time: 47:57

Released: Japan 1988 VICTOR
Cat #: VDPB-25001
Matrix: VDPB-25001-1-A1C 25

Narod
MEGAUPLOAD

Log
EAC extraction logfile from 10. November 2009, 21:17 for CD
Europe / Out Of This World [VDPB-25001]

Used drive : ASUS DRW-2014S1 Adapter: 0 ID: 0
Read mode : Secure with NO C2, accurate stream, disable cache
Read offset correction : 6
Overread into Lead-In and Lead-Out : No

Used output format : Internal WAV Routines
44.100 Hz; 16 Bit; Stereo

Other options :
Fill up missing offset samples with silence : Yes
Delete leading and trailing silent blocks : No
Installed external ASPI interface


Range status and errors
Selected range
Filename Y:\Музыка\Europe\1988 Out Of This World\Europe - Out Of This World [VDPB-25001].wav

Peak level 99.7 %
Range quality 100.0 %
CRC F0E93028
Copy OK

No errors occured

End of status report

------------------------------------------------------------

EAC extraction logfile from 10. November 2009, 21:17 for CD
Europe / Out Of This World [VDPB-25001]

Used drive : ASUS DRW-2014S1 Adapter: 0 ID: 0
Read mode : Secure with NO C2, accurate stream, disable cache
Read offset correction : 6
Overread into Lead-In and Lead-Out : No

Used output format : Internal WAV Routines
44.100 Hz; 16 Bit; Stereo

Other options :
Fill up missing offset samples with silence : Yes
Delete leading and trailing silent blocks : No
Installed external ASPI interface


Range status and errors
Selected range
Filename Y:\Музыка\Europe\1988 Out Of This World\Europe - Out Of This World [VDPB-25001].wav

Peak level 99.7 %
Range quality 100.0 %
CRC F0E93028
Copy OK

No errors occured

End of status report


Куй исправленный
REM GENRE "Hard Rock"
REM DATE 1988
REM DISCID B70B440C
REM COMMENT "ExactAudioCopy v0.95b4"
CATALOG 0000000000000
PERFORMER "Europe"
TITLE "Out Of This World [VDPB-25001]"
FILE "Europe - Out Of This World [VDPB-25001].flac" WAVE
TRACK 01 AUDIO
TITLE "Superstitious"
PERFORMER "Europe"
INDEX 00 00:00:00
INDEX 01 00:00:37
TRACK 02 AUDIO
TITLE "Let The Good Times Rock"
PERFORMER "Europe"
INDEX 01 04:36:25
TRACK 03 AUDIO
TITLE "Open Your Heart"
PERFORMER "Europe"
INDEX 01 08:40:40
TRACK 04 AUDIO
TITLE "More Than Meets The Eye"
PERFORMER "Europe"
INDEX 00 12:44:63
INDEX 01 12:45:15
TRACK 05 AUDIO
TITLE "Coast To Coast"
PERFORMER "Europe"
INDEX 00 16:06:28
INDEX 01 16:07:00
TRACK 06 AUDIO
TITLE "Ready Or Not"
PERFORMER "Europe"
INDEX 00 20:08:38
INDEX 01 20:08:50
TRACK 07 AUDIO
TITLE "Sign Of The Times"
PERFORMER "Europe"
INDEX 00 24:13:73
INDEX 01 24:14:35
TRACK 08 AUDIO
TITLE "Just The Beginning"
PERFORMER "Europe"
INDEX 01 28:30:15
TRACK 09 AUDIO
TITLE "Never Say Die"
PERFORMER "Europe"
INDEX 01 33:02:67
TRACK 10 AUDIO
TITLE "Lights And Shadows"
PERFORMER "Europe"
INDEX 00 37:03:35
INDEX 01 37:03:47
TRACK 11 AUDIO
TITLE "Tower's Callin'"
PERFORMER "Europe"
INDEX 01 41:07:32
TRACK 12 AUDIO
TITLE "Tomorrow"
PERFORMER "Europe"
INDEX 00 44:56:50
INDEX 01 44:57:57

_________________
Витасу до Даймонда как Алсу до Руссоса | При переразмещении - спрашивать разрешение!!


Last edited by iezuit on 11 Nov 2009, edited 1 time in total.

Top
 Profile  
 
 
PostPosted: 10 Nov 2009 
Хиппей (support team)
User avatar
Joined: 30 Jul 2007
Posts: 116090
Lоcаtion: Киев (Kyiv, UA)
Age: 46
Name: Andrey
Дима, спасибо :thanx:

_________________


Top
 Profile E-mail  
 
 
PostPosted: 10 Nov 2009 
HAMMER
User avatar
Joined: 16 May 2009
Posts: 5488
Lоcаtion: Тверь
Age: 47
Name: Александр
:thanx:


Top
 Profile E-mail  
 
 
PostPosted: 10 Nov 2009 
ыыыы
User avatar
Joined: 17 May 2009
Posts: 952
Lоcаtion: Пушкино, МО
Age: 41
Name: Дмитрий
:true: :thanx: :true:

_________________
Витасу до Даймонда как Алсу до Руссоса | При переразмещении - спрашивать разрешение!!


Top
 Profile  
 
 
PostPosted: 10 Nov 2009 
Хиппей (support team)
User avatar
Joined: 30 Jul 2007
Posts: 116090
Lоcаtion: Киев (Kyiv, UA)
Age: 46
Name: Andrey
Да, точно, себя поблагодарить тоже бывает полезно :true:

_________________


Top
 Profile E-mail  
 
 
PostPosted: 10 Nov 2009 
хард н хэвщик (support team)
User avatar
Joined: 02 Jun 2008
Posts: 16881
Lоcаtion: Н.Новгород
Age: 32
Name: Артем
никогда не нравился этот альбом :pardon: :nea:


Top
 Profile  
 
 
PostPosted: 11 Nov 2009 
ыыыы
User avatar
Joined: 17 May 2009
Posts: 952
Lоcаtion: Пушкино, МО
Age: 41
Name: Дмитрий
Ну да (( Норум-то ушел! Судя по всему он хотел добиваться жесткого звучания в стиле Доккен а Темпест- хардопоповое в стиле ребят из «Леппард» :meloman: Вот и получилось- ни чартов, ни славы :nunu:

_________________
Витасу до Даймонда как Алсу до Руссоса | При переразмещении - спрашивать разрешение!!


Top
 Profile  
 
Display posts from previous:  Sort by  
Post new topic Reply to topic  [ 7 posts ] 

All times are UTC + 3 hours


Who is online

Users browsing this forum: No registered users and 1 guest


You cannot post new topics in this forum
You cannot reply to topics in this forum
You cannot edit your posts in this forum
You cannot delete your posts in this forum
You cannot post attachments in this forum

Search for:
Яндекс.Метрика
cron
Powered by phpBB © 2000, 2002, 2005, 2007 phpBB Group