\m/ 80's metal \m/

Информационно-аналитический форум "80 см пыли" (In Search We Trust) "У нас никто никуда не спешит"
Me For You - http://me-4u.com
It is currently 19 Apr 2019

All times are UTC + 3 hours

Spoiler
Chat - temporary registration for foreign users (please leave your application here)







Post new topic Reply to topic  [ 40 posts ]  Go to page 1, 2  Next
Author Message
 
PostPosted: 08 Nov 2009 
ыыыы
User avatar
Joined: 17 May 2009
Posts: 952
Lоcаtion: Пушкино, МО
Age: 40
Name: Дмитрий
Image


Дата первоначального выпуска: 26.05.1986 Epic - EPC 2608

По материалам журнала "Метал Хаммер":

Жизнь сурова. Сегодня ты – король, ты – в центре внимания, люди толпами бегают за тобой и набиваются тебе в друзья. А завтра ты можешь оказаться изгоем, всеми забытым и никому не нужным.
Именно такое испытание судьбы пришлось пережить ребятам из шведской группы «Европа» - «Europe». За последние годы им довелось понять, что не так-то просто повторить такой успех, каким в своё время был их хит «The Final Countdown». 6,4 миллиона его экземпляров разошлись в мгновение ока, и ребята превратились в суперзвёзд. Но ненадолго. Мир шоу-бизнеса жесток: несколько месяцев тебя носят на руках, но потом начинают требовать подтверждения твоего таланта. А если его не последует, то большинство вчерашних твоих поклонников даже не подаст руки.
Следующий диск «Европы» - «Out Of This World» - вышел в 1988 году, через два года после «The Final Countdown». И был воспринят как неудача...

Продолжение

Жанр: Hard Rock
Происхождение исполнителя: Швеция
Год издания: 1986
Год издания данного носителя: 1986
Страна-производитель носителя: Япония
Аудио кодек: FLAC
Тип рипа: image+.cue
Битрейт аудио: lossless
Продолжительность: 40:06
Рип: Собственный
Лейбл: HOT/VICTOR
Каталоговый номер: VDP-1083
Матрица: VDP-1083-1-V3E 27 (JVC)

Треклист:
1. The Final Countdown 05:11
2. Rock The Night 04:05
3. Carrie 04:32
4. Danger On The Track 03:46
5. Ninja 03:47
6. Cherokee 04:15
7. Time Has Come 04:02
8. Heart Of Stone 03:47
9. On The Loose 03:10
10. Love Chaser 03:31

"Куй"
REM GENRE "Hard Rock"
REM DATE 1986
REM DISCID 6B096A0A
REM COMMENT "ExactAudioCopy v0.95b4"
CATALOG 0000000000000
PERFORMER "Europe"
TITLE "The Final Countdown [VDP-1083]"
FILE "Europe - The Final Countdown [VDP-1083].wav" WAVE
TRACK 01 AUDIO
TITLE "The Final Countdown"
PERFORMER "Europe"
INDEX 00 00:00:00
INDEX 01 00:00:37
TRACK 02 AUDIO
TITLE "Rock The Night"
PERFORMER "Europe"
INDEX 01 05:11:50
TRACK 03 AUDIO
TITLE "Carrie"
PERFORMER "Europe"
INDEX 00 09:16:73
INDEX 01 09:17:12
TRACK 04 AUDIO
TITLE "Danger On The Track"
PERFORMER "Europe"
INDEX 00 13:49:00
INDEX 01 13:49:42
TRACK 05 AUDIO
TITLE "Ninja"
PERFORMER "Europe"
INDEX 00 17:36:03
INDEX 01 17:36:20
TRACK 06 AUDIO
TITLE "Cherokee"
PERFORMER "Europe"
INDEX 01 21:23:35
TRACK 07 AUDIO
TITLE "Time Has Come"
PERFORMER "Europe"
INDEX 00 25:37:44
INDEX 01 25:38:57
TRACK 08 AUDIO
TITLE "Heart Of Stone"
PERFORMER "Europe"
INDEX 00 29:40:74
INDEX 01 29:41:37
TRACK 09 AUDIO
TITLE "On The Loose"
PERFORMER "Europe"
INDEX 00 33:28:64
INDEX 01 33:28:65
TRACK 10 AUDIO
TITLE "Love Chaser"
PERFORMER "Europe"
INDEX 01 36:39:07


"Лог"
EAC extraction logfile from 8. November 2009, 22:19 for CD
Europe / The Final Countdown [VDP-1083]

Used drive : ASUS DRW-2014S1 Adapter: 0 ID: 0
Read mode : Secure with NO C2, accurate stream, disable cache
Read offset correction : 6
Overread into Lead-In and Lead-Out : No

Used output format : Internal WAV Routines
44.100 Hz; 16 Bit; Stereo

Other options :
Fill up missing offset samples with silence : Yes
Delete leading and trailing silent blocks : No
Installed external ASPI interface


Range status and errors
Selected range
Filename Y:\Музыка\Europe\1986 The Final Countdown\Europe - The Final Countdown [VDP-1083].wav

Peak level 87.0 %
Range quality 100.0 %
CRC 97DB712F
Copy OK

No errors occured

End of status report


Состав:
Joey Tempest: Vocals
John Norum: Guitars
John Leven: Bass
Mic Michaeli: Keyboards
Ian Haugland: Drums

VDP-1083
Photo

Image


Жанр: Hard Rock
Происхождение исполнителя: Швеция
Год издания: 1986
Год издания данного носителя: 1986
Страна-производитель носителя: Япония для Европы
Аудио кодек: FLAC
Тип рипа: image+.cue
Битрейт аудио: lossless
Продолжительность: 39:56
Рип: Собственный
Лейбл: HOT/EPIC
Каталоговый номер: CDEPC 26808
Матрица: DIDP-10508 21 +++++ (SONY)

Треклист:
1. The Final Countdown 05:11
2. Rock The Night 04:04
3. Carrie 04:31
4. Danger On The Track 03:46
5. Ninja 03:47
6. Cherokee 04:13
7. Time Has Come 04:01
8. Heart Of Stone 03:47
9. On The Loose 03:09
10. Love Chaser 03:28

"Куй"
REM GENRE "Hard Rock"
REM DATE 1986
REM DISCID 6D095B0A
REM COMMENT "ExactAudioCopy v0.99pb5"
PERFORMER "Europe"
TITLE "The Final Countdown [CDEPC 26808]"
FILE "Europe - The Final Countdown [CDEPC 26808].flac" WAVE
TRACK 01 AUDIO
TITLE "The Final Countdown"
PERFORMER "Europe"
INDEX 01 00:00:00
TRACK 02 AUDIO
TITLE "Rock The Night"
PERFORMER "Europe"
INDEX 00 05:09:62
INDEX 01 05:11:20
TRACK 03 AUDIO
TITLE "Carrie"
PERFORMER "Europe"
INDEX 01 09:15:12
TRACK 04 AUDIO
TITLE "Danger On The Track"
PERFORMER "Europe"
INDEX 01 13:45:57
TRACK 05 AUDIO
TITLE "Ninja"
PERFORMER "Europe"
INDEX 00 17:31:05
INDEX 01 17:31:40
TRACK 06 AUDIO
TITLE "Cherokee"
PERFORMER "Europe"
INDEX 00 21:17:55
INDEX 01 21:18:07
TRACK 07 AUDIO
TITLE "Time Has Come"
PERFORMER "Europe"
INDEX 00 25:30:70
INDEX 01 25:31:42
TRACK 08 AUDIO
TITLE "Heart Of Stone"
PERFORMER "Europe"
INDEX 01 29:32:37
TRACK 09 AUDIO
TITLE "On The Loose"
PERFORMER "Europe"
INDEX 01 33:19:25
TRACK 10 AUDIO
TITLE "Love Chaser"
PERFORMER "Europe"
INDEX 01 36:28:10


"Лог"
Exact Audio Copy V0.99 prebeta 5 from 4. May 2009

Отчёт EAC об извлечении, выполненном 19. октября 2010, 9:32

Europe / The Final Countdown [CDEPC 26808]

Дисковод: Optiarc DVD RW AD-7200A Adapter: 1 ID: 0

Режим чтения : Достоверность
Использование точного потока : Да
Отключение кэша аудио : Да
Использование указателей C2 : Нет

Коррекция смещения при чтении : 48
Способность читать области Lead-in и Lead-out : Нет
Заполнение пропущенных сэмплов тишиной : Да
Удаление блоков с тишиной в начале и конце : Нет
При вычислениях CRC использовались нулевые сэмплы : Да
Интерфейс : Встроенный Win32-интерфейс для Win NT/2000

Выходной формат : Пользовательский кодировщик
Выбранный битрейт : 128 kBit/s
Качество : Высокий
Добавление ID3-тэга : Нет
Утилита сжатия : C:\Program Files\Exact Audio Copy\Flac\flac.exe
Дополнительные параметры : -8 -V -T "artist=%a" -T "title=%t" -T "album=%g" -T "date=%y" -T "tracknumber=%n" -T "genre=%m" -T "comment=EAC


TOC извлечённого CD

Трек | Старт | Длительность | Начальный сектор | Конечный сектор
---------------------------------------------------------------------
1 | 0:00.00 | 5:11.20 | 0 | 23344
2 | 5:11.20 | 4:03.67 | 23345 | 41636
3 | 9:15.12 | 4:30.45 | 41637 | 61931
4 | 13:45.57 | 3:45.58 | 61932 | 78864
5 | 17:31.40 | 3:46.42 | 78865 | 95856
6 | 21:18.07 | 4:13.35 | 95857 | 114866
7 | 25:31.42 | 4:00.70 | 114867 | 132936
8 | 29:32.37 | 3:46.63 | 132937 | 149949
9 | 33:19.25 | 3:08.60 | 149950 | 164109
10 | 36:28.10 | 3:27.52 | 164110 | 179686


Характеристики диапазона извлечения и сообщения об ошибках

Выбранный диапазон

Имя файла Y:\Музыка\Europe\1986 The Final Countdown\Europe - The Final Countdown [CDEPC 26808].wav

Пиковый уровень 82.8 %
Качество диапазона 99.9 %
CRC копии 47EAFDDD
Копирование... OK

Ошибок не произошло


AccurateRip: сводка

Трек 1 точное извлечение (доверие 9) [CCCD1616]
Трек 2 точное извлечение (доверие 7) [1DDA9CCA]
Трек 3 точное извлечение (доверие 9) [5B957B42]
Трек 4 точное извлечение (доверие 7) [36329F7A]
Трек 5 точное извлечение (доверие 7) [EEB69FD5]
Трек 6 точное извлечение (доверие 8) [7B319673]
Трек 7 точное извлечение (доверие 7) [5E83C7E8]
Трек 8 точное извлечение (доверие 8) [4738AE93]
Трек 9 точное извлечение (доверие 7) [B30833C6]
Трек 10 точное извлечение (доверие 6) [5D29F65B]

Все треки извлечены точно

Конец отчёта


Состав:
Joey Tempest: Vocals
John Norum: Guitars
John Leven: Bass
Mic Michaeli: Keyboards
Ian Haugland: Drums

CDEPC 26808

_________________
Витасу до Даймонда как Алсу до Руссоса | При переразмещении - спрашивать разрешение!!


Last edited by iezuit on 19 Oct 2010, edited 5 times in total.

Top
 Profile  
 
 
PostPosted: 08 Nov 2009 
Хиппей (support team)
User avatar
Joined: 30 Jul 2007
Posts: 111704
Lоcаtion: Киев (Kyiv, UA)
Age: 45
Name: Andrey
:thanx:

_________________


Top
 Profile E-mail  
 
 
PostPosted: 10 Nov 2009 
Дежурный по КУПу
User avatar
Joined: 17 Aug 2007
Posts: 5871
Age: 50
Name: Ге
Спасибо!

_________________
http://jp-mania.ru/
http://jp-tourdates.ucoz.ru/


Top
 Profile  
 
 
PostPosted: 10 Nov 2009 
HAMMER
User avatar
Joined: 16 May 2009
Posts: 5477
Lоcаtion: Тверь
Age: 46
Name: Александр
И за этого японца спасибо Дима-сан.


Top
 Profile E-mail  
 
 
PostPosted: 11 Nov 2009 
Персональный статус
User avatar
Joined: 02 Feb 2009
Posts: 236
Lоcаtion: Тульская область
Age: 53
Name: Владимир
Спасибо за новый куй! Проверено, работает. :thanx:

_________________
http://img254.imageshack.us/img254/1015 ... 743574.gif
http://img140.imageshack.us/img140/7192 ... arlogo.jpg


Top
 Profile  
 
 
PostPosted: 12 Nov 2009 
ыыыы
User avatar
Joined: 17 May 2009
Posts: 952
Lоcаtion: Пушкино, МО
Age: 40
Name: Дмитрий
:true: :true:

_________________
Витасу до Даймонда как Алсу до Руссоса | При переразмещении - спрашивать разрешение!!


Top
 Profile  
 
 
PostPosted: 24 Nov 2009 
5cm
User avatar
Joined: 01 Mar 2009
Posts: 61
Name: Сергей
Большое спсибо ! Сканы сделай,если не трудно


Top
 Profile  
 
 
PostPosted: 24 Nov 2009 
ыыыы
User avatar
Joined: 17 May 2009
Posts: 952
Lоcаtion: Пушкино, МО
Age: 40
Name: Дмитрий
Сканы внутри

_________________
Витасу до Даймонда как Алсу до Руссоса | При переразмещении - спрашивать разрешение!!


Top
 Profile  
 
 
PostPosted: 25 Nov 2009 
5cm
User avatar
Joined: 01 Mar 2009
Posts: 61
Name: Сергей
Это фотки, хотелось бы полные качественные сканы 300-600 dpi


Top
 Profile  
 
 
PostPosted: 21 Dec 2009 
ыыыы
User avatar
Joined: 17 May 2009
Posts: 952
Lоcаtion: Пушкино, МО
Age: 40
Name: Дмитрий
fantafan wrote:
Это фотки, хотелось бы полные качественные сканы 300-600 dpi

Сканера нету((

_________________
Витасу до Даймонда как Алсу до Руссоса | При переразмещении - спрашивать разрешение!!


Top
 Profile  
 
 
PostPosted: 29 Jun 2010 
Пионэръ
User avatar
Joined: 20 Jun 2010
Posts: 40
Lоcаtion: Москоw-Сити
Name: Димон
данке!! файнал каунтдавн рулез :meloman:

_________________
)†/_'†º¨ł


Top
 Profile  
 
 
PostPosted: 29 Jun 2010 
Power Metal Maniac
User avatar
Joined: 09 Aug 2008
Posts: 6670
Lоcаtion: Москва
Age: 41
Name: Егор
даже мне нравится! :true: :dance:

_________________
Long Live Metal!


Top
 Profile  
 
 
PostPosted: 30 Jun 2010 
Motörheadache
User avatar
Joined: 04 Feb 2010
Posts: 1294
Lоcаtion: Впереди- горы,позади-степи
Age: 46
Name: Александр
Лестница Якоба....ёкарныбабай..1986-й год....
плАчу.... :cry: :cry:

_________________
Eine Nation, Ein Land, Eine Schnaps!

Наш священный долг:защищать Родину,и соблюдать правила личной гигиены....!


Top
 Profile E-mail  
 
 
PostPosted: 30 Jun 2010 
ыыыы
User avatar
Joined: 17 May 2009
Posts: 952
Lоcаtion: Пушкино, МО
Age: 40
Name: Дмитрий
видел,помню!! а там было такое- кто-то из них играл на носимых на плече клавишных?

_________________
Витасу до Даймонда как Алсу до Руссоса | При переразмещении - спрашивать разрешение!!


Top
 Profile  
 
 
PostPosted: 30 Jun 2010 
Персональный статус
Joined: 14 May 2010
Posts: 236
Age: 37
Name: Денис
да, вроде были там такие клавишные.. и Tempest такой пушистый был и счастливый.


Top
 Profile  
 
 
PostPosted: 30 Jun 2010 
Motörheadache
User avatar
Joined: 04 Feb 2010
Posts: 1294
Lоcаtion: Впереди- горы,позади-степи
Age: 46
Name: Александр
iezuit wrote:
видел,помню!! а там было такое- кто-то из них играл на носимых на плече клавишных?

Нащёт плечевых клавишных не помню..честно... :umnik:
Вокалер со стойкой вроде скакал...да Норум изголялсо с гитарой отключенной... :crazy:

_________________
Eine Nation, Ein Land, Eine Schnaps!

Наш священный долг:защищать Родину,и соблюдать правила личной гигиены....!


Top
 Profile E-mail  
 
 
PostPosted: 30 Jun 2010 
ыыыы
User avatar
Joined: 17 May 2009
Posts: 952
Lоcаtion: Пушкино, МО
Age: 40
Name: Дмитрий
alexx1973 wrote:
Норум изголялсо с гитарой отключенной... :crazy:

Может она у него была на радиопримочке? :umnik:

_________________
Витасу до Даймонда как Алсу до Руссоса | При переразмещении - спрашивать разрешение!!


Top
 Profile  
 
 
PostPosted: 30 Jun 2010 
Motörheadache
User avatar
Joined: 04 Feb 2010
Posts: 1294
Lоcаtion: Впереди- горы,позади-степи
Age: 46
Name: Александр
Дим....чёт я сомневаюсь,что на таких попсовых сборищах да радиоприбамбасы.....да в 86-м году... :umnik: :pardon:
КРУИЗ тоже газовал там...без проводофф... :crazy:

_________________
Eine Nation, Ein Land, Eine Schnaps!

Наш священный долг:защищать Родину,и соблюдать правила личной гигиены....!


Top
 Profile E-mail  
 
 
PostPosted: 30 Jun 2010 
ыыыы
User avatar
Joined: 17 May 2009
Posts: 952
Lоcаtion: Пушкино, МО
Age: 40
Name: Дмитрий
да были уже в 86 году радиопримочки, да и Европа тогда уже была мажористая

_________________
Витасу до Даймонда как Алсу до Руссоса | При переразмещении - спрашивать разрешение!!


Top
 Profile  
 
 
PostPosted: 30 Jun 2010 
Позитивный Южанин
User avatar
Joined: 07 May 2010
Posts: 1620
Lоcаtion: КРЫМ
Age: 43
Name: Алексей
В своё время имел на руках пиратский перуанский винил вышеописанного мяса...Ну да помню ,гонялась одна вещь,лучше б её не было,так бы запиленность плиты была бы равномерной :crazy:
Сменял вместе с FASTER PUSSYCAT тогда на что то...Не любил я с нашивками на плечах, людей с накрашенными губами,цыганскими прическами,и платками на колготках)))Хотя Крюки и Кисс так и остались в коллекции моих виниловых джунглей...Что то в этом было ай-яяя!!! :dance:
Утренняя почта запомнилась тремя программами:где Боня летал на лебёдках,где Мегадэт осмелились показать ,ну и финальный отсчёт :true:

_________________
WATER'EM ALL!


Top
 Profile E-mail  
 
Display posts from previous:  Sort by  
Post new topic Reply to topic  [ 40 posts ]  Go to page 1, 2  Next

All times are UTC + 3 hours


Who is online

Users browsing this forum: No registered users and 1 guest


You cannot post new topics in this forum
You cannot reply to topics in this forum
You cannot edit your posts in this forum
You cannot delete your posts in this forum
You cannot post attachments in this forum

Search for:
Яндекс.Метрика
Powered by phpBB © 2000, 2002, 2005, 2007 phpBB Group