\m/ 80's metal \m/

Информационно-аналитический форум "80 см пыли" (In Search We Trust) "У нас никто никуда не спешит"
Me For You - http://me-4u.com
It is currently 22 Aug 2019

All times are UTC + 3 hours

Spoiler
Chat - temporary registration for foreign users (please leave your application here)







Post new topic Reply to topic  [ 1 post ] 
Author Message
 
PostPosted: 28 Aug 2009 
Хиппей (support team)
User avatar
Joined: 30 Jul 2007
Posts: 114041
Lоcаtion: Киев (Kyiv, UA)
Age: 46
Name: Andrey
Earthshaker - 1984 - Fugitive (reissued 2007)

Image

Genre: Hard & Heavy
Location: Japan
Format: wv+cue+log+covers
Size: 260 Mb


Line-up:
Masafumi Nishida - vocals
Shinichiro Ishihara - guitars
Takayuki Kai - bass
Yoshihiro Kudo - drums

    1. Kioku No Naka - 03:17
    2. Young Girls - 03:48
    3. Shiny Day - 04:13
    4. Love Destiny - 06:46
    5. More - 04:46
    6. 2217: - 04:11
    7. Drive Me Crazy - 04:31
    8. Fugitive - 06:29

    TPT: 38:01

Mega
Narod

Неплохой, очень неплохой такой альбомчик... :meloman:

Released by unfinished hide from MMT

log
EAC extraction logfile from 26. February 2008, 16:49 for CD
Earthshaker / Fugitive

Used drive : HL-DT-STDVDRAM GSA-4163B Adapter: 1 ID: 1
Read mode : Secure with NO C2, accurate stream, disable cache
Read offset correction : 667
Overread into Lead-In and Lead-Out : No

Used output format : Internal WAV Routines
44.100 Hz; 16 Bit; Stereo

Other options :
Fill up missing offset samples with silence : Yes
Delete leading and trailing silent blocks : No
Native Win32 interface for Win NT & 2000


Range status and errors
Selected range
Filename C:\Earthshaker - Fugitive.wav

Peak level 100.0 %
Range quality 100.0 %
CRC BAD8E3F7
Copy OK

No errors occured

End of status report


cue
REM GENRE "Heavy Metal"
REM DATE 1983
REM DISCID 6F08EA08
REM COMMENT "ExactAudioCopy v0.95b4"
PERFORMER "Earthshaker"
TITLE "Fugitive"
FILE "Earthshaker - Fugitive.wv" WAVE
TRACK 01 AUDIO
TITLE "Kioku No Naka"
PERFORMER "Earthshaker"
ISRC JPKI08384303
INDEX 01 00:00:00
TRACK 02 AUDIO
TITLE "Young Girls"
PERFORMER "Earthshaker"
ISRC JPKI08384302
INDEX 01 03:16:50
TRACK 03 AUDIO
TITLE "Shiny Day"
PERFORMER "Earthshaker"
ISRC JPKI08384301
INDEX 01 07:04:20
TRACK 04 AUDIO
TITLE "Love Destiny"
PERFORMER "Earthshaker"
ISRC JPKI08384300
INDEX 01 11:17:57
TRACK 05 AUDIO
TITLE "More"
PERFORMER "Earthshaker"
ISRC JPKI08384299
INDEX 01 18:04:00
TRACK 06 AUDIO
TITLE "22:00"
PERFORMER "Earthshaker"
ISRC JPKI08384298
INDEX 01 22:49:37
TRACK 07 AUDIO
TITLE "Drive Me Crazy"
PERFORMER "Earthshaker"
ISRC JPKI08384297
INDEX 01 26:59:62
TRACK 08 AUDIO
TITLE "Fugitive"
PERFORMER "Earthshaker"
ISRC JPKI08384296
INDEX 01 31:30:32

_________________


Top
 Profile E-mail  
 
Display posts from previous:  Sort by  
Post new topic Reply to topic  [ 1 post ] 

All times are UTC + 3 hours


Who is online

Users browsing this forum: No registered users and 1 guest


You cannot post new topics in this forum
You cannot reply to topics in this forum
You cannot edit your posts in this forum
You cannot delete your posts in this forum
You cannot post attachments in this forum

Search for:
Яндекс.Метрика
Powered by phpBB © 2000, 2002, 2005, 2007 phpBB Group