\m/ 80's metal \m/

Информационно-аналитический форум "80 см пыли" (In Search We Trust) "У нас никто никуда не спешит"
Железнодорожная биржа - RailAgent
It is currently 25 May 2018

All times are UTC + 3 hours

Spoiler
Chat - temporary registration for foreign users (please leave your application here)







Post new topic Reply to topic  [ 30 posts ]  Go to page Previous  1, 2
Author Message
 
PostPosted: 04 Oct 2010 
Power Metal Maniac
User avatar
Joined: 09 Aug 2008
Posts: 6077
Lоcаtion: Москва
Age: 40
Name: Егор
по мне гадость, хуже альбомов почти не слушал. по мне ЭЗО - фолс, такое в Метале ненавижу. Вот вам Павер современный не нравится, а мне это. EZO ведь качал как японский Хэви, а получил то, что совсем не в моем вкусе. Вот об этом и речь.

_________________
Long Live Metal!


Top
 Profile  
 
 
PostPosted: 04 Oct 2010 
дядя Миша
User avatar
Joined: 17 Oct 2008
Posts: 2966
Lоcаtion: USSR
Age: 55
Name: Khy
мда....... А назови пять любимых альбомов пжста?


Top
 Profile  
 
 
PostPosted: 04 Oct 2010 
Power Metal Maniac
User avatar
Joined: 09 Aug 2008
Posts: 6077
Lоcаtion: Москва
Age: 40
Name: Егор
Что-то вроде
Judas Priest "Painkiller"
Helloween "Walls of Jericho"
Gamma Ray "Somewhere out in Space"
Deathrow "Deception Ignored"
Children of Bodom "Hatebreeder"

Вообще, 5-ку сложно, после тысяч прослушанных альбомов).

_________________
Long Live Metal!


Top
 Profile  
 
 
PostPosted: 04 Oct 2010 
дядя Миша
User avatar
Joined: 17 Oct 2008
Posts: 2966
Lоcаtion: USSR
Age: 55
Name: Khy
теперь ясно. Просто вкусы абсолютно разные.


Top
 Profile  
 
 
PostPosted: 04 Oct 2010 
Хиппей (support team)
User avatar
Joined: 30 Jul 2007
Posts: 103633
Lоcаtion: Киев (Kyiv, UA)
Age: 44
Name: Andrey
Странное дело... В осле есть куй и лог, но по отдельности. Лося самого не вижу.
Мож кто скачивал?
Лог и куй оставляю здесь, на всякий случай.

log | +
Exact Audio Copy V0.99 prebeta 4 from 23. January 2008

EAC extraction logfile from 11. May 2009, 21:10

E.Z.O / E.Z.O

Used drive : HL-DT-STDVDRAM GSA-T30L Adapter: 2 ID: 0

Read mode : Secure
Utilize accurate stream : Yes
Defeat audio cache : Yes
Make use of C2 pointers : No

Read offset correction : 667
Overread into Lead-In and Lead-Out : No
Fill up missing offset samples with silence : Yes
Delete leading and trailing silent blocks : No
Null samples used in CRC calculations : Yes
Used interface : Native Win32 interface for Win NT & 2000

Used output format : Monkey's Audio Lossless Encoder
Selected bitrate : High Lossless Compression
Quality : High
Add ID3 tag : Yes
Command line compressor : C:\Program Files\Exact Audio Copy\Ape\MAC.exe


TOC of the extracted CD

Track | Start | Length | Start sector | End sector
---------------------------------------------------------
1 | 0:00.00 | 5:10.30 | 0 | 23279
2 | 5:10.30 | 4:07.73 | 23280 | 41877
3 | 9:18.28 | 4:22.55 | 41878 | 61582
4 | 13:41.08 | 3:15.37 | 61583 | 76244
5 | 16:56.45 | 3:37.70 | 76245 | 92589
6 | 20:34.40 | 4:29.53 | 92590 | 112817
7 | 25:04.18 | 3:53.32 | 112818 | 130324
8 | 28:57.50 | 3:26.20 | 130325 | 145794
9 | 32:23.70 | 3:29.20 | 145795 | 161489


Range status and errors

Selected range

Filename D:\EZO\EZO -Ezo.wav

Peak level 97.9 %
Range quality 100.0 %
Test CRC A9F7D2F7
Copy CRC A9F7D2F7
Copy OK

No errors occurred


AccurateRip summary

Track 1 not present in database
Track 2 not present in database
Track 3 not present in database
Track 4 not present in database
Track 5 not present in database
Track 6 not present in database
Track 7 not present in database
Track 8 not present in database
Track 9 not present in database

None of the tracks are present in the AccurateRip database

End of status report



cue | +
REM DATE 1987
REM DISCID 69086909
REM COMMENT "ExactAudioCopy v0.99pb4"
PERFORMER "EZO"
TITLE "EZO"
FILE "EZO -Ezo.ape" WAVE
TRACK 01 AUDIO
TITLE "House Of 1.000 Pleasures"
PERFORMER "EZO"
INDEX 01 00:00:00
TRACK 02 AUDIO
TITLE "Flashback Heart Attack"
PERFORMER "EZO"
INDEX 01 05:10:30
TRACK 03 AUDIO
TITLE "Mr. Midnight"
PERFORMER "EZO"
INDEX 01 09:18:28
TRACK 04 AUDIO
TITLE "Here It Comes"
PERFORMER "EZO"
INDEX 01 13:41:08
TRACK 05 AUDIO
TITLE "I Walk Alone"
PERFORMER "EZO"
INDEX 01 16:56:45
TRACK 06 AUDIO
TITLE "Destroyer"
PERFORMER "EZO"
INDEX 00 20:32:71
INDEX 01 20:34:40
TRACK 07 AUDIO
TITLE "Big Changes"
PERFORMER "EZO"
INDEX 00 25:02:21
INDEX 01 25:04:18
TRACK 08 AUDIO
TITLE "Kiss Of Fire"
PERFORMER "EZO"
INDEX 01 28:57:50
TRACK 09 AUDIO
TITLE "Desiree"
PERFORMER "EZO"
INDEX 01 32:23:70



И по ходу сразу вопрос к Мише и Жене - вы лосей со своих диском не сможете сделать?




Ну и картиночки из того же рипа в ослике:

Image

Image

На Кавер_Парадайзе немного меньше...

_________________


Top
 Profile E-mail  
 
 
PostPosted: 04 Oct 2010 
дядя Миша
User avatar
Joined: 17 Oct 2008
Posts: 2966
Lоcаtion: USSR
Age: 55
Name: Khy
У меня оба диска EZO запечатаны. Я ж маньяк , ты ж знаешь , открывать пока не буду.


Top
 Profile  
 
 
PostPosted: 04 Oct 2010 
Хиппей (support team)
User avatar
Joined: 30 Jul 2007
Posts: 103633
Lоcаtion: Киев (Kyiv, UA)
Age: 44
Name: Andrey
Понимаю =)
Ок. Надеюсь, Евгений успел его распечатать. Вроде всех своих японцев он слушал. Даже лосей делал, но с неохотой. Понимаю всех и принимаю как есть. Если ответ будет привычным, бум искать дальше :dance:

_________________


Top
 Profile E-mail  
 
 
PostPosted: 24 Feb 2017 
Хиппей (support team)
User avatar
Joined: 30 Jul 2007
Posts: 103633
Lоcаtion: Киев (Kyiv, UA)
Age: 44
Name: Andrey
EZO - 1987 - EZO [ape]

Image ImageImage


mirror: iFolder l Narod l M-Cloud

loh
Exact Audio Copy V0.99 prebeta 4 from 23. January 2008

EAC extraction logfile from 11. May 2009, 21:10

E.Z.O / E.Z.O

Used drive : HL-DT-STDVDRAM GSA-T30L Adapter: 2 ID: 0

Read mode : Secure
Utilize accurate stream : Yes
Defeat audio cache : Yes
Make use of C2 pointers : No

Read offset correction : 667
Overread into Lead-In and Lead-Out : No
Fill up missing offset samples with silence : Yes
Delete leading and trailing silent blocks : No
Null samples used in CRC calculations : Yes
Used interface : Native Win32 interface for Win NT & 2000

Used output format : Monkey's Audio Lossless Encoder
Selected bitrate : High Lossless Compression
Quality : High
Add ID3 tag : Yes
Command line compressor : C:\Program Files\Exact Audio Copy\Ape\MAC.exe


TOC of the extracted CD

Track | Start | Length | Start sector | End sector
---------------------------------------------------------
1 | 0:00.00 | 5:10.30 | 0 | 23279
2 | 5:10.30 | 4:07.73 | 23280 | 41877
3 | 9:18.28 | 4:22.55 | 41878 | 61582
4 | 13:41.08 | 3:15.37 | 61583 | 76244
5 | 16:56.45 | 3:37.70 | 76245 | 92589
6 | 20:34.40 | 4:29.53 | 92590 | 112817
7 | 25:04.18 | 3:53.32 | 112818 | 130324
8 | 28:57.50 | 3:26.20 | 130325 | 145794
9 | 32:23.70 | 3:29.20 | 145795 | 161489


Range status and errors

Selected range

Filename D:\EZO\EZO -Ezo.wav

Peak level 97.9 %
Range quality 100.0 %
Test CRC A9F7D2F7
Copy CRC A9F7D2F7
Copy OK

No errors occurred


AccurateRip summary

Track 1 not present in database
Track 2 not present in database
Track 3 not present in database
Track 4 not present in database
Track 5 not present in database
Track 6 not present in database
Track 7 not present in database
Track 8 not present in database
Track 9 not present in database

None of the tracks are present in the AccurateRip database

End of status report

cue
REM DATE 1987
REM DISCID 69086909
REM COMMENT "ExactAudioCopy v0.99pb4"
PERFORMER "EZO"
TITLE "EZO"
FILE "EZO -Ezo.ape" WAVE
TRACK 01 AUDIO
TITLE "House Of 1.000 Pleasures"
PERFORMER "EZO"
INDEX 01 00:00:00
TRACK 02 AUDIO
TITLE "Flashback Heart Attack"
PERFORMER "EZO"
INDEX 01 05:10:30
TRACK 03 AUDIO
TITLE "Mr. Midnight"
PERFORMER "EZO"
INDEX 01 09:18:28
TRACK 04 AUDIO
TITLE "Here It Comes"
PERFORMER "EZO"
INDEX 01 13:41:08
TRACK 05 AUDIO
TITLE "I Walk Alone"
PERFORMER "EZO"
INDEX 01 16:56:45
TRACK 06 AUDIO
TITLE "Destroyer"
PERFORMER "EZO"
INDEX 00 20:32:71
INDEX 01 20:34:40
TRACK 07 AUDIO
TITLE "Big Changes"
PERFORMER "EZO"
INDEX 00 25:02:21
INDEX 01 25:04:18
TRACK 08 AUDIO
TITLE "Kiss Of Fire"
PERFORMER "EZO"
INDEX 01 28:57:50
TRACK 09 AUDIO
TITLE "Desiree"
PERFORMER "EZO"
INDEX 01 32:23:70

_________________


Top
 Profile E-mail  
 
 
PostPosted: 24 Feb 2017 
Хиппей (support team)
User avatar
Joined: 30 Jul 2007
Posts: 103633
Lоcаtion: Киев (Kyiv, UA)
Age: 44
Name: Andrey
Хороший альбом, хороший, чуть хрипловатый вокалист, добротный взрослый хардынхэви :meloman: :lob: :lob: :lob:
Один раз послушал, особых аналогий ни с кем не обнаружил. А вот придя с улицы и попав как раз на песню "Kiss Of Fire" и понял - так это ж почти Alice Cooper :shok: :crazy:


Или наоборот :pardon:

7/10




_________________


Top
 Profile E-mail  
 
 
PostPosted: 24 Feb 2017 
спирт 100%
User avatar
Joined: 22 Sep 2008
Posts: 4209
Age: 46
Name: Саня
:thanx: Спасибо!


Top
 Profile  
 
Display posts from previous:  Sort by  
Post new topic Reply to topic  [ 30 posts ]  Go to page Previous  1, 2

All times are UTC + 3 hours


Who is online

Users browsing this forum: No registered users and 1 guest


You cannot post new topics in this forum
You cannot reply to topics in this forum
You cannot edit your posts in this forum
You cannot delete your posts in this forum
You cannot post attachments in this forum

Search for:
Яндекс.Метрика
Powered by phpBB © 2000, 2002, 2005, 2007 phpBB Group