\m/ 80's metal \m/

Информационно-аналитический форум "80 см пыли" (In Search We Trust) "У нас никто никуда не спешит"
Me For You - http://me-4u.com
It is currently 23 Oct 2018

All times are UTC + 3 hours

Spoiler
Chat - temporary registration for foreign users (please leave your application here)







Post new topic Reply to topic  [ 22 posts ]  Go to page 1, 2  Next
Author Message
 
PostPosted: 24 Aug 2009 
А может смените мне статус?..
Joined: 12 Dec 2008
Posts: 981
Lоcаtion: BULGARIA
Age: 40
Name: DIMITЪR
Embargo - Panem et Circenses

Image

Style:Power metal
1.Sudden Reign 07:01
2.Yours Sincerely, Sirrah 05:22
3.To All Those Who... 04:14
4.Merciless Speed 06:21
5.Frozen Harmony 04:05
6.Ulterior Empire 03:09
7.The Fear 04:48
8.Victory of Lost 05:18
9.High in the Sky 07:26
Total playing time:47:44

THANKS!!!! :true: :true: :true:


Top
 Profile  
 
 
PostPosted: 18 Mar 2011 
Работнечег
User avatar
Joined: 28 Aug 2007
Posts: 5470
Lоcаtion: г. Москва
Age: 29
Name: Дима
Вот здесь есть:
hpml
Токо у меня туда доступа нет :oops:


Top
 Profile E-mail  
 
 
PostPosted: 08 Aug 2011 
Хиппей (support team)
User avatar
Joined: 30 Jul 2007
Posts: 107143
Lоcаtion: Киев (Kyiv, UA)
Age: 45
Name: Andrey
Так еще нужен этот альбом? :vic:

_________________


Top
 Profile E-mail  
 
 
PostPosted: 08 Aug 2011 
Труъ
Joined: 01 Jan 2010
Posts: 118
Lоcаtion: MetaLWarrioR
Name: Сергей
Ссылка там давно уже не рабочая!


Top
 Profile E-mail  
 
 
PostPosted: 08 Aug 2011 
А может смените мне статус?..
Joined: 12 Dec 2008
Posts: 981
Lоcаtion: BULGARIA
Age: 40
Name: DIMITЪR
Потрековьй flac могу залить ,скачал flac и записал на диск в wav формат, не знаю дали качество влошается но звучить хорошо :true:


Top
 Profile  
 
 
PostPosted: 08 Aug 2011 
Хиппей (support team)
User avatar
Joined: 30 Jul 2007
Posts: 107143
Lоcаtion: Киев (Kyiv, UA)
Age: 45
Name: Andrey
Потрековый не нужен :pardon:
Вечерком или завтра залью нормальный.

_________________


Top
 Profile E-mail  
 
 
PostPosted: 08 Aug 2011 
Труъ
Joined: 01 Jan 2010
Posts: 118
Lоcаtion: MetaLWarrioR
Name: Сергей
Embargo - Panem Et Circenses (1992) Lossless (FLAC+CUE+LOG) (MMT: speedica)

http://ifolder.ru/25088133

log
Exact Audio Copy V0.99 prebeta 5 from 4. May 2009

EAC extraction logfile from 8. July 2011, 15:58

Embargo / Panem Et Circenses

Used drive : PIONEER DVD-RW DVR-106D Adapter: 1 ID: 0

Read mode : Secure
Utilize accurate stream : Yes
Defeat audio cache : Yes
Make use of C2 pointers : No

Read offset correction : 48
Overread into Lead-In and Lead-Out : No
Fill up missing offset samples with silence : Yes
Delete leading and trailing silent blocks : No
Null samples used in CRC calculations : Yes
Used interface : Installed external ASPI interface

Used output format : User Defined Encoder
Selected bitrate : 32 kBit/s
Quality : High
Add ID3 tag : No
Command line compressor : C:\Program Files\Exact Audio Copy\Flac\flac.exe
Additional command line options : -6 -V %s


TOC of the extracted CD

Track | Start | Length | Start sector | End sector
---------------------------------------------------------
1 | 0:00.32 | 7:01.05 | 32 | 31611
2 | 7:01.37 | 5:22.00 | 31612 | 55761
3 | 12:23.37 | 4:14.08 | 55762 | 74819
4 | 16:37.45 | 6:21.42 | 74820 | 103436
5 | 22:59.12 | 4:05.58 | 103437 | 121869
6 | 27:04.70 | 3:09.65 | 121870 | 136109
7 | 30:14.60 | 4:48.00 | 136110 | 157709
8 | 35:02.60 | 5:18.70 | 157710 | 181629
9 | 40:21.55 | 7:26.37 | 181630 | 215116


Range status and errors

Selected range

Filename M:\metalmadness\Embargo - Panem Et Circenses.wav

Peak level 100.0 %
Range quality 100.0 %
Copy CRC FC20495C
Copy OK

No errors occurred


AccurateRip summary

Track 1 not present in database
Track 2 not present in database
Track 3 not present in database
Track 4 not present in database
Track 5 not present in database
Track 6 not present in database
Track 7 not present in database
Track 8 not present in database
Track 9 not present in database

None of the tracks are present in the AccurateRip database

End of status report



cue
REM GENRE "Power/Speed Metal"
REM DATE 1992
REM DISCID 740B3409
REM COMMENT "ExactAudioCopy v0.99pb5"
PERFORMER "Embargo"
TITLE "Panem Et Circenses"
FILE "Embargo - Panem Et Circenses.flac" WAVE
TRACK 01 AUDIO
TITLE "Sudden Reign"
PERFORMER "Embargo"
INDEX 00 00:00:00
INDEX 01 00:00:32
TRACK 02 AUDIO
TITLE "Yours Sincerely, Sirrah"
PERFORMER "Embargo"
INDEX 00 06:59:05
INDEX 01 07:01:37
TRACK 03 AUDIO
TITLE "To All Those Who..."
PERFORMER "Embargo"
INDEX 00 12:21:50
INDEX 01 12:23:37
TRACK 04 AUDIO
TITLE "Merciless Speed"
PERFORMER "Embargo"
INDEX 00 16:36:00
INDEX 01 16:37:45
TRACK 05 AUDIO
TITLE "Frozen Harmony"
PERFORMER "Embargo"
INDEX 00 22:56:35
INDEX 01 22:59:12
TRACK 06 AUDIO
TITLE "Ulterior Empire"
PERFORMER "Embargo"
INDEX 00 27:03:57
INDEX 01 27:04:70
TRACK 07 AUDIO
TITLE "The Fear"
PERFORMER "Embargo"
INDEX 00 30:11:67
INDEX 01 30:14:60
TRACK 08 AUDIO
TITLE "Victory Of Lost"
PERFORMER "Embargo"
INDEX 00 35:01:27
INDEX 01 35:02:60
TRACK 09 AUDIO
TITLE "High In The Sky"
PERFORMER "Embargo"
INDEX 00 40:19:60
INDEX 01 40:21:55


Last edited by MetaLWarrioR on 08 Aug 2011, edited 4 times in total.

Top
 Profile E-mail  
 
 
PostPosted: 08 Aug 2011 
А может смените мне статус?..
Joined: 12 Dec 2008
Posts: 981
Lоcаtion: BULGARIA
Age: 40
Name: DIMITЪR
Scatterbrain wrote:
Потрековый не нужен :pardon:


В чем разница, (FLAC+CUE...),в етом случай и CUE не нужен если вы не хотите потрековый.


Top
 Profile  
 
 
PostPosted: 08 Aug 2011 
Хиппей (support team)
User avatar
Joined: 30 Jul 2007
Posts: 107143
Lоcаtion: Киев (Kyiv, UA)
Age: 45
Name: Andrey
MetaLWarrioR

Эээ, Серёг, это твой рип? :oops:

cryptors wrote:
В чем разница

Не знаю. Но явно она есть =))
Я некогда не записывал лосей на болванку в формат CD-DA :pardon:

_________________


Top
 Profile E-mail  
 
 
PostPosted: 08 Aug 2011 
А может смените мне статус?..
Joined: 12 Dec 2008
Posts: 981
Lоcаtion: BULGARIA
Age: 40
Name: DIMITЪR
ЗДЕСЬ


Top
 Profile  
 
 
PostPosted: 08 Aug 2011 
Труъ
Joined: 01 Jan 2010
Posts: 118
Lоcаtion: MetaLWarrioR
Name: Сергей
Это и есть альбом с ММТ!


Top
 Profile E-mail  
 
 
PostPosted: 08 Aug 2011 
Хиппей (support team)
User avatar
Joined: 30 Jul 2007
Posts: 107143
Lоcаtion: Киев (Kyiv, UA)
Age: 45
Name: Andrey
MetaLWarrioR wrote:
альбом с ММТ!

Тогда, плиз, указываем источник (за тебя этот сделал Димитар) и прикрепляем лог и куй в пост :thanx:

Я же пока его докачиваю. На всяк случай :oops:

_________________


Top
 Profile E-mail  
 
 
PostPosted: 08 Aug 2011 
Труъ
Joined: 01 Jan 2010
Posts: 118
Lоcаtion: MetaLWarrioR
Name: Сергей
Scatterbrain wrote:
Тогда, плиз, указываем источник (за тебя этот сделал Димитар) и прикрепляем лог и куй в пост

Добавил...


Top
 Profile E-mail  
 
 
PostPosted: 08 Aug 2011 
Хиппей (support team)
User avatar
Joined: 30 Jul 2007
Posts: 107143
Lоcаtion: Киев (Kyiv, UA)
Age: 45
Name: Andrey
Во, спасибо! :thanx:
Теперь полный порядок :dance:

mirror: iFolder l Narod l M-Cloud

_________________


Top
 Profile E-mail  
 
 
PostPosted: 08 Aug 2011 
Хиппей (support team)
User avatar
Joined: 30 Jul 2007
Posts: 107143
Lоcаtion: Киев (Kyiv, UA)
Age: 45
Name: Andrey
А вот и картинки подоспели :dance: (full front + back covers)

MultiUp
Narod

Image

Image

_________________


Top
 Profile E-mail  
 
 
PostPosted: 24 Feb 2017 
Хиппей (support team)
User avatar
Joined: 30 Jul 2007
Posts: 107143
Lоcаtion: Киев (Kyiv, UA)
Age: 45
Name: Andrey
Хм, поначалу думал (смотря на название), что группа играет либо прог заумный, либо павер.
На поверку же оказался достаточно трушный и не сопливый Melodic Metal с некоторым паверными приколами :meloman:

7/10

_________________


Top
 Profile E-mail  
 
 
PostPosted: 24 Feb 2017 
Power Metal Maniac
User avatar
Joined: 09 Aug 2008
Posts: 6317
Lоcаtion: Москва
Age: 40
Name: Егор
Не постил вроде старую ревьюшку:

Немецкий Melodic Speed Metal, первый альбом группы. Да, естественно, на Helloween это похоже, но не только. Звучание достаточно жесткое ( меня какие-то ассоциации с Thrash постоянно возникали), однако гитары сухие, совсем не жирные. Чем-то еще напоминает ранний Rage и Running Wild. Музыка мелодичная, быстрая, но далеко не сверхскоростная. Отдельно отмечу вокал Marc Wagner - его голос хоть и похож на Киске, однако отличается от него, и ИМХО весьма харизматичный, и именно он придаёт основную характерную мелодичность музыке. Открывашка хороша, последняя вещь тоже, но вот остальные послабее, чего-то в них не достает. Группа в общем, достойная, но выпускала свои альбомы в начале 90-х - в не самое удачное время для Speed Metal, и к сожалению после 3-го альбома (The Red Tide, 1997) распалась. 4.5/6.0.
29.08.2008

А в общем, третий альбом лучший, а второй самый слабый.

_________________
Long Live Metal!


Top
 Profile  
 
 
PostPosted: 25 Feb 2017 
Хиппей (support team)
User avatar
Joined: 30 Jul 2007
Posts: 107143
Lоcаtion: Киев (Kyiv, UA)
Age: 45
Name: Andrey
EG Power wrote:
Да, естественно, на Helloween это похоже, но не только

:shok: :shok: :shok: Вот тут уж я заоору тихо, но возмущённо - с хреналь и где??? :shok: :shok: :shok:
Вижу я, что ревью писано в 08-м году, но какой здесь то Helloween? :starz:
EG Power wrote:
Отдельно отмечу вокал Marc Wagner - его голос хоть и похож на Киске, однако отличается от него, и ИМХО весьма харизматичный, и именно он придаёт основную характерную мелодичность музыке.

И ни разу не похож на вокал Киске.
Давай примеры, плиз, где тебе такое послышалось.

_________________


Top
 Profile E-mail  
 
 
PostPosted: 25 Feb 2017 
Я набрал 1000 сообщений!
Joined: 09 Jul 2008
Posts: 2416
Age: 45
Name: Сергей
угу, совершенно непонятно, с какого бодуна сравнение с хелловином и с киске в частности
ну и то, что третий альбом лучший, взято явно с того же самого бодуна )


Top
 Profile  
 
 
PostPosted: 25 Feb 2017 
Power Metal Maniac
User avatar
Joined: 09 Aug 2008
Posts: 6317
Lоcаtion: Москва
Age: 40
Name: Егор
Вокал не клон Киске, разумеется я об этом и писал. Но с кем сравнивать еще тут? Не с УДО же)
По музыке - тоже, скажите тогда, с каким коллективом на то время сравнить.

The Red Tide - лучший, самый яркий и скоростной. Да и услышал я его почти лет 20 назад, другие спустя 10 лет слабее оказались.

_________________
Long Live Metal!


Top
 Profile  
 
Display posts from previous:  Sort by  
Post new topic Reply to topic  [ 22 posts ]  Go to page 1, 2  Next

All times are UTC + 3 hours


Who is online

Users browsing this forum: No registered users and 1 guest


You cannot post new topics in this forum
You cannot reply to topics in this forum
You cannot edit your posts in this forum
You cannot delete your posts in this forum
You cannot post attachments in this forum

Search for:
Яндекс.Метрика
Powered by phpBB © 2000, 2002, 2005, 2007 phpBB Group