\m/ 80's metal \m/

Информационно-аналитический форум "80 см пыли" (In Search We Trust) "У нас никто никуда не спешит"
Me For You - http://me-4u.com
It is currently 20 Apr 2019

All times are UTC + 3 hours

Spoiler
Chat - temporary registration for foreign users (please leave your application here)







Post new topic Reply to topic  [ 1 post ] 
Author Message
 
PostPosted: 03 Jul 2009 
Хиппей (support team)
User avatar
Joined: 30 Jul 2007
Posts: 111727
Lоcаtion: Киев (Kyiv, UA)
Age: 45
Name: Andrey
Eddie Money - 2003 - The Essential (comp.)

    Image

Genre: Classic Rock/AOR
Location: USA
Format: ape+cue+log+scans
Size: 442 Mb


    1. Two Tickets to Paradise
    2. Baby Hold On
    3. Wanna Be a Rock 'n Roll Star
    4. Gimme Some Water
    5. Get a Move On
    6. Trinidad
    7. Shakin'
    8. Think I'm in Love
    9. No Control
    10. Take Me Home Tonight
    11. I Wanna Go Back
    12. Walk on Water
    13. I'll Get By
    14. Peace in Our Time
    15. There Will Never Be Another You

    TPT: 59:00

Mega
Narod

Released by Emperor5353 from HQShare

log
Exact Audio Copy V0.99 prebeta 3 from 28. July 2007

EAC extraction logfile from 12. January 2008, 14:08

Eddie Money / The Essential Eddie Money

Used drive : PHILIPS DVD+-RW DVD8631 Adapter: 1 ID: 0

Read mode : Secure
Utilize accurate stream : Yes
Defeat audio cache : Yes
Make use of C2 pointers : No

Read offset correction : 618
Overread into Lead-In and Lead-Out : No
Fill up missing offset samples with silence : Yes
Delete leading and trailing silent blocks : No
Null samples used in CRC calculations : Yes
Used interface : Installed external ASPI interface

Used output format : Monkey's Audio Lossless Encoder
Selected bitrate : Normal Lossless Compression
Quality : High
Add ID3 tag : No
Command line compressor : C:\Program Files\Monkey's Audio\MAC.exe
Additional command line options : --quality 7 --xlevel --artist "%a" --title "%t" --album "%g" --year "%y" --track "%n" --genre "%m" %s


TOC of the extracted CD

Track | Start | Length | Start sector | End sector
---------------------------------------------------------
1 | 0:00.00 | 3:58.67 | 0 | 17916
2 | 3:58.67 | 3:32.03 | 17917 | 33819
3 | 7:30.70 | 4:02.00 | 33820 | 51969
4 | 11:32.70 | 3:39.55 | 51970 | 68449
5 | 15:12.50 | 3:41.62 | 68450 | 85086
6 | 18:54.37 | 5:06.35 | 85087 | 108071
7 | 24:00.72 | 3:09.28 | 108072 | 122274
8 | 27:10.25 | 3:10.60 | 122275 | 136584
9 | 30:21.10 | 3:59.52 | 136585 | 154561
10 | 34:20.62 | 3:31.65 | 154562 | 170451
11 | 37:52.52 | 3:55.18 | 170452 | 188094
12 | 41:47.70 | 4:39.55 | 188095 | 209074
13 | 46:27.50 | 3:33.67 | 209075 | 225116
14 | 50:01.42 | 5:02.67 | 225117 | 247833
15 | 55:04.34 | 3:55.48 | 247834 | 265506


Range status and errors

Selected range

Filename F:\Eddie Money - The Essential Eddie Money.wav

Peak level 97.7 %
Range quality 100.0 %
Copy CRC 2B19924E
Copy OK

No errors occurred


AccurateRip summary

Track 1 accurately ripped (confidence 7) [21485CB6]
Track 2 accurately ripped (confidence 8) [67AACD38]
Track 3 accurately ripped (confidence 7) [70475933]
Track 4 accurately ripped (confidence 7) [FA97410E]
Track 5 accurately ripped (confidence 7) [18B8BA90]
Track 6 accurately ripped (confidence 7) [E3697160]
Track 7 accurately ripped (confidence 7) [CBCC4FBE]
Track 8 accurately ripped (confidence 7) [B074811C]
Track 9 accurately ripped (confidence 6) [4E668C2E]
Track 10 accurately ripped (confidence 7) [D012519A]
Track 11 accurately ripped (confidence 6) [8C33E6F4]
Track 12 accurately ripped (confidence 6) [CB4202A1]
Track 13 accurately ripped (confidence 6) [F137871B]
Track 14 accurately ripped (confidence 6) [F8E00C7E]
Track 15 accurately ripped (confidence 4) [A4E245EF]

All tracks accurately ripped

End of status report

spectrum
Image

_________________


Top
 Profile E-mail  
 
Display posts from previous:  Sort by  
Post new topic Reply to topic  [ 1 post ] 

All times are UTC + 3 hours


Who is online

Users browsing this forum: No registered users and 1 guest


You cannot post new topics in this forum
You cannot reply to topics in this forum
You cannot edit your posts in this forum
You cannot delete your posts in this forum
You cannot post attachments in this forum

Search for:
Яндекс.Метрика
Powered by phpBB © 2000, 2002, 2005, 2007 phpBB Group