\m/ 80's metal \m/

Информационно-аналитический форум "80 см пыли" (In Search We Trust) "У нас никто никуда не спешит"
Me For You - http://me-4u.com
It is currently 19 Aug 2019

All times are UTC + 3 hours

Spoiler
Chat - temporary registration for foreign users (please leave your application here)







Post new topic Reply to topic  [ 1 post ] 
Author Message
 
PostPosted: 16 May 2009 
Хиппей (support team)
User avatar
Joined: 30 Jul 2007
Posts: 113991
Lоcаtion: Киев (Kyiv, UA)
Age: 46
Name: Andrey
Eddie Money - 1977 - Eddie Money (reissued 1986)

    Image

Genre: Classic Rock
Location: USA
Format: wv+cue+log+covers
Size: 260 Mb


Musicians:
Eddie Money - vocals, keyboards, saxophone
Jimmy Lyon - guitars
Gary Mallaber - drums, percussion
Lonnie Turner - bass
Gene Pardue - drums
Bob "Pops" Popwell - bass
Tom Scott - alto and tenor sax
Alan Pasqua - keyboards
Randy Nichols - keyboards
Freddie Webb - keyboards
Kevin Calhoun - percussion
Jo Baker - second vocal on "Baby Hold On"

    1. Two Tickets to Paradise - 03:58
    2. You've Really Got a Hold on Me - 03:45
    3. Wanna Be a Rock 'n' Roll Star - 04:02
    4. Save a Little Room in Your Heart for Me - 04:57
    5. So Good to Be in Love Again - 04:12
    6. Baby Hold On - 03:31
    7. Don't Worry - 03:45
    8. Jealousys - 03:59
    9. Got to Get Another Girl - 03:26
    10. Gamblin' Man - 04:02

    TPT: 39:40

Mega
Narod

Хорошо зашёл Эдичка дебютником :true:
Это альбом и спустя 32 года слушается свежо, драйвово и уместно :dance:


Лосик скачан мулом, релизём неизвестен, но благодарим его виртуально и целуем в темечко.

log
Exact Audio Copy V0.99 prebeta 4 from 23. January 2008

EAC extraction logfile from 28. August 2008, 5:37

Money, Eddie / Eddie Money [MasterSound Gold Disc]

Used drive : HL-DT-STCD-RW GCE-8481B Adapter: 1 ID: 1

Read mode : Secure
Utilize accurate stream : Yes
Defeat audio cache : Yes
Make use of C2 pointers : No

Read offset correction : 6
Overread into Lead-In and Lead-Out : Yes
Fill up missing offset samples with silence : Yes
Delete leading and trailing silent blocks : No
Null samples used in CRC calculations : Yes
Used interface : Installed external ASPI interface
Gap handling : Appended to previous track

Used output format : User Defined Encoder
Selected bitrate : 32 kBit/s
Quality : High
Add ID3 tag : No
Command line compressor : C:\Program Files\FLAC\flac.exe
Additional command line options : -q8 -T "artist=%a" -T "title=%t" -T "album=%g" -T "date=%y" -T "tracknumber=%n" -T "genre=%m" -T "comment=EAC (Secure)" %s


TOC of the extracted CD

Track | Start | Length | Start sector | End sector
---------------------------------------------------------
1 | 0:00.00 | 3:59.42 | 0 | 17966
2 | 3:59.42 | 3:53.60 | 17967 | 35501
3 | 7:53.27 | 4:04.05 | 35502 | 53806
4 | 11:57.32 | 4:58.03 | 53807 | 76159
5 | 16:55.35 | 4:13.47 | 76160 | 95181
6 | 21:09.07 | 3:32.68 | 95182 | 111149
7 | 24:42.00 | 3:47.25 | 111150 | 128199
8 | 28:29.25 | 4:00.40 | 128200 | 146239
9 | 32:29.65 | 3:29.52 | 146240 | 161966
10 | 35:59.42 | 4:00.18 | 161967 | 179984


Track 1

Filename C:\Ripped Music\01 Two Tickets To Paradise.wav

Pre-gap length 0:00:02.00

Peak level 97.3 %
Track quality 100.0 %
Copy CRC 32F63AA0
Accurately ripped (confidence 2) [12CD51F9]
Copy OK

Track 2

Filename C:\Ripped Music\02 You've Really Got A Hold On Me.wav

Pre-gap length 0:00:01.31

Peak level 95.0 %
Track quality 100.0 %
Copy CRC 7FB0E68B
Accurately ripped (confidence 2) [FE0A77EB]
Copy OK

Track 3

Filename C:\Ripped Music\03 Wanna Be A Rock 'N' Roll Star.wav

Pre-gap length 0:00:01.40

Peak level 89.8 %
Track quality 99.9 %
Copy CRC 6E429F62
Accurately ripped (confidence 2) [9D14B7C8]
Copy OK

Track 4

Filename C:\Ripped Music\04 Save A Little Room In Your Heart For Me.wav

Pre-gap length 0:00:01.69

Peak level 84.3 %
Track quality 100.0 %
Copy CRC B1F0DBF7
Accurately ripped (confidence 2) [1EB24B21]
Copy OK

Track 5

Filename C:\Ripped Music\05 So Good To Be In Love Again.wav

Pre-gap length 0:00:01.36

Peak level 97.9 %
Track quality 100.0 %
Copy CRC E91F3B18
Accurately ripped (confidence 2) [30CA3375]
Copy OK

Track 6

Filename C:\Ripped Music\06 Baby Hold On.wav

Pre-gap length 0:00:01.40

Peak level 100.0 %
Track quality 100.0 %
Copy CRC 69131955
Accurately ripped (confidence 2) [D740E5AD]
Copy OK

Track 7

Filename C:\Ripped Music\07 Don't Worry.wav

Pre-gap length 0:00:01.43

Peak level 100.0 %
Track quality 100.0 %
Copy CRC 139C592B
Accurately ripped (confidence 2) [265CF483]
Copy OK

Track 8

Filename C:\Ripped Music\08 Jealousys.wav

Pre-gap length 0:00:01.39

Peak level 100.0 %
Track quality 100.0 %
Copy CRC C61C60E2
Accurately ripped (confidence 2) [EA0B0884]
Copy OK

Track 9

Filename C:\Ripped Music\09 Got To Get Another Girl.wav

Pre-gap length 0:00:01.45

Peak level 97.7 %
Track quality 100.0 %
Copy CRC DB8C7FD7
Accurately ripped (confidence 2) [6848C9C2]
Copy OK

Track 10

Filename C:\Ripped Music\10 Gamblin Man.wav

Pre-gap length 0:00:01.40

Peak level 100.0 %
Track quality 100.0 %
Copy CRC D6ED3723
Accurately ripped (confidence 2) [59CCA19F]
Copy OK


All tracks accurately ripped

No errors occurred

End of status report

spectrum
Image

_________________


Top
 Profile E-mail  
 
Display posts from previous:  Sort by  
Post new topic Reply to topic  [ 1 post ] 

All times are UTC + 3 hours


Who is online

Users browsing this forum: No registered users and 2 guests


You cannot post new topics in this forum
You cannot reply to topics in this forum
You cannot edit your posts in this forum
You cannot delete your posts in this forum
You cannot post attachments in this forum

Search for:
Яндекс.Метрика
Powered by phpBB © 2000, 2002, 2005, 2007 phpBB Group