\m/ 80's metal \m/

Информационно-аналитический форум "80 см пыли" (In Search We Trust) "У нас никто никуда не спешит"
Me For You - http://me-4u.com
It is currently 23 Oct 2018

All times are UTC + 3 hours

Spoiler
Chat - temporary registration for foreign users (please leave your application here)







Post new topic Reply to topic  [ 10 posts ] 
Author Message
 
PostPosted: 03 Oct 2008 
udo
User avatar
Joined: 01 Mar 2008
Posts: 2343
Lоcаtion: Краснодар
Age: 47
Name: РОМАН
Exumer - Whips & Chains (demo)

<Year> 1989
<Style> Thrash
<Country> Germany
<Format> 256 kb/s
<Size> 31 mb



<Line>
John Cadden - vocals
Bernie Siedler - guitar
Ray Mensch - guitar
Bernd Cramer - drums
Franz Pries - bass.


<Tracklist>
1. Whips & Chains 05:50
2. Lil Ol' Me 06:27
3. Time Out 04:27
Total playing time 16:44

http://ifolder.ru/8394149


Top
 Profile E-mail  
 
 
PostPosted: 26 Apr 2012 
консэрваторъ
Joined: 11 Aug 2007
Posts: 16068
Lоcаtion: Псков
Age: 44
Name: Сергей
Quote:
Файл номер 8394149 удален !!!

:( Хотя эта демка есть на переиздание Rising from the Sea от 2001-ого года... так что можно и не переливать...

_________________
THRASH 'EM ALL


Top
 Profile E-mail  
 
 
PostPosted: 26 Apr 2012 
Хиппей (support team)
User avatar
Joined: 30 Jul 2007
Posts: 107143
Lоcаtion: Киев (Kyiv, UA)
Age: 45
Name: Andrey
Угу http://darksound.ru/thrash-metal/71900- ... hains.html

_________________


Top
 Profile E-mail  
 
 
PostPosted: 26 Apr 2012 
Хиппей (support team)
User avatar
Joined: 30 Jul 2007
Posts: 107143
Lоcаtion: Киев (Kyiv, UA)
Age: 45
Name: Andrey
Exumer - 1987 - Rising From The Sea + Whips & Chains (demo) - 1989 (reissued 2001) [flac]

Image

Genre: Speed Thrash
Location: Germany
Formay: flac + cue + log + scans
Size: 447 Mb




Хм... В 90-м году, уже достаточно наслушавшись на кассетах первородного хэви, спида, трэша и дэз-метола, и насмотревшись на этот винил на нашей балке (купить не мог - денег жалько было), записал все же альбом на кассету. Пришёл через пару дней домой, включил... Эээ, вспомнился мне сразу же ранний Kreator и как я его долго пытался понять. В общем, забросил эту кассетку с Экзумером куда подальше. В следующий раз наткнулся на неё спустя два года, когда уже полностью начал въежжжать в такие стили так брутальный трэш, дэз, дум и даже грайнд с блэком и эмбиентом, снова заслушал несколько раз это рубилово и... снова не понял.
В начале нового века ознакомился уже со всей нехитрой дискографией группы. Заслушал. Не совсем понял, ну и ладно.
Решил, что культовый статус группа приобрела чисто у нас. И явно из-за обложек виниловых :umnik:
Сегодня слушаю уже полдня и таки убеждаюсь, что данный альбом у группы посредственный - скорость и злоба ради злобы и скорости. То есть, ребята попробовали переплюнуть Slayer & Kreator. Получилось. Но, сопля как-то загадочно зависла между США и Германией... :yoy: Может просто не удалось прорваться в первый дивизион?
Альбом то хороший, и явно культовый, но на данный момент никаких эмоций во мне не вызывает :vic:

Без оценки.

Зато очень понравились три бонусных трэка в павер-стиле. Техничные такие, прифанкованные, мелодичные, с хорошим, поющим, а не выкрикиваюшим вокалом Штайна. Первая даже основана на каких-то классических мотивах. Или чьего-то гимна :scratch:

MultiUp l Speedy l Narod

log
Exact Audio Copy V1.0 beta 1 from 15. November 2010

EAC extraction logfile from 24. June 2011, 2:09

Exumer / Rising From The Sea / Whips & Chains

Used drive : ASUS DRW-24B1ST Adapter: 5 ID: 0

Read mode : Secure
Utilize accurate stream : Yes
Defeat audio cache : Yes
Make use of C2 pointers : No

Read offset correction : 6
Overread into Lead-In and Lead-Out : No
Fill up missing offset samples with silence : Yes
Delete leading and trailing silent blocks : No
Null samples used in CRC calculations : Yes
Used interface : Installed external ASPI interface

Used output format : User Defined Encoder
Selected bitrate : 128 kBit/s
Quality : High
Add ID3 tag : No
Command line compressor : D:\Rec Install\lossless\lossless\Exact Audio Copy 0.9b4 + APE WV & FLAC Encoders\FLAC.EXE
Additional command line options : -8 -V %s


TOC of the extracted CD

Track | Start | Length | Start sector | End sector
---------------------------------------------------------
1 | 0:00.00 | 0:08.51 | 0 | 650
2 | 0:08.51 | 4:17.20 | 651 | 19945
3 | 4:25.71 | 5:28.05 | 19946 | 44550
4 | 9:54.01 | 2:44.05 | 44551 | 56855
5 | 12:38.06 | 4:54.59 | 56856 | 78964
6 | 17:32.65 | 5:15.28 | 78965 | 102617
7 | 22:48.18 | 4:29.13 | 102618 | 122805
8 | 27:17.31 | 2:10.07 | 122806 | 132562
9 | 29:27.38 | 3:49.15 | 132563 | 149752
10 | 33:16.53 | 3:15.44 | 149753 | 164421
11 | 36:32.22 | 5:50.30 | 164422 | 190701
12 | 42:22.52 | 6:27.10 | 190702 | 219736
13 | 48:49.62 | 4:27.53 | 219737 | 239814


Range status and errors

Selected range

Filename G:\Torrent\# MY\Exumer (1985-1989)\1987 - Rising From The Sea (+ Whips & Chains 1989 Demo)\Exumer - Rising From The Sea - Whips & Chains.wav

Peak level 100.0 %
Extraction speed 0.2 X
Range quality 100.0 %
Test CRC 389FD728
Copy CRC 389FD728
Copy OK

No errors occurred


AccurateRip summary

Track 1 cannot be verified as accurate (confidence 2) [41CBCF74], AccurateRip returned [93299314]
Track 2 cannot be verified as accurate (confidence 2) [69F7B903], AccurateRip returned [E5FEB8AB]
Track 3 cannot be verified as accurate (confidence 2) [36CD9FBC], AccurateRip returned [363A62DC]
Track 4 cannot be verified as accurate (confidence 2) [19A12EDB], AccurateRip returned [3AD285DB]
Track 5 cannot be verified as accurate (confidence 2) [97CCA66C], AccurateRip returned [5E7977F4]
Track 6 cannot be verified as accurate (confidence 2) [C642F674], AccurateRip returned [39F0505C]
Track 7 cannot be verified as accurate (confidence 2) [22B79604], AccurateRip returned [4DF543DC]
Track 8 cannot be verified as accurate (confidence 2) [D3577C05], AccurateRip returned [46D827E5]
Track 9 cannot be verified as accurate (confidence 2) [C2E94F7F], AccurateRip returned [9F920D47]
Track 10 cannot be verified as accurate (confidence 2) [E8A83239], AccurateRip returned [9292E091]
Track 11 cannot be verified as accurate (confidence 2) [18A7A93A], AccurateRip returned [CA5AF151]
Track 12 cannot be verified as accurate (confidence 2) [16B002B5], AccurateRip returned [46761B9F]
Track 13 cannot be verified as accurate (confidence 2) [38FB76F3], AccurateRip returned [ECF834BA]

No tracks could be verified as accurate
You may have a different pressing from the one(s) in the database

End of status report

cue
REM GENRE "Thrash Metal"
REM DATE 2001
REM DISCID BB0C7D0D
REM COMMENT "ExactAudioCopy v1.0b1"
PERFORMER "Exumer"
TITLE "Rising From The Sea / Whips & Chains"
FILE "Exumer - Rising From The Sea - Whips & Chains.flac" WAVE
TRACK 01 AUDIO
TITLE "Intro"
PERFORMER "Exumer"
INDEX 01 00:00:00
TRACK 02 AUDIO
TITLE "Winds Of Death"
PERFORMER "Exumer"
INDEX 00 00:08:16
INDEX 01 00:08:51
TRACK 03 AUDIO
TITLE "Rising From The Sea"
PERFORMER "Exumer"
INDEX 00 04:22:71
INDEX 01 04:25:71
TRACK 04 AUDIO
TITLE "Decimation"
PERFORMER "Exumer"
INDEX 00 09:52:01
INDEX 01 09:54:01
TRACK 05 AUDIO
TITLE "The First Supper"
PERFORMER "Exumer"
INDEX 00 12:36:06
INDEX 01 12:38:06
TRACK 06 AUDIO
TITLE "Unearthed"
PERFORMER "Exumer"
INDEX 00 17:29:65
INDEX 01 17:32:65
TRACK 07 AUDIO
TITLE "Shadows Of The Past"
PERFORMER "Exumer"
INDEX 00 22:46:03
INDEX 01 22:48:18
TRACK 08 AUDIO
TITLE "Are You Deaf?"
PERFORMER "Exumer"
INDEX 00 27:15:04
INDEX 01 27:17:31
TRACK 09 AUDIO
TITLE "I Dare You"
PERFORMER "Exumer"
INDEX 00 29:24:38
INDEX 01 29:27:38
TRACK 10 AUDIO
TITLE "Ascension Day"
PERFORMER "Exumer"
INDEX 00 33:13:53
INDEX 01 33:16:53
TRACK 11 AUDIO
TITLE "Whips & Chains (Demo) (Bonus track)"
PERFORMER "Exumer"
INDEX 00 36:28:22
INDEX 01 36:32:22
TRACK 12 AUDIO
TITLE "Lil Ol' Me (Demo) (Bonus track)"
PERFORMER "Exumer"
INDEX 01 42:22:52
TRACK 13 AUDIO
TITLE "Time Out (Demo) (Bonus track)"
PERFORMER "Exumer"
INDEX 01 48:49:62

spectrum
Image

_________________


Top
 Profile E-mail  
 
 
PostPosted: 26 Apr 2012 
Анатолий
User avatar
Joined: 18 Oct 2008
Posts: 3133
Lоcаtion: Армавир
Age: 41
Name: Анатолий
Scatterbrain wrote:
поющим, а не выкрикиваюшим вокалом Штайна


На этом альбоме поёт не он.

Мне данный релиз понравился много меньше чем дебютник. Много чего на этом альбоме не совсем в тему...


Top
 Profile E-mail  
 
 
PostPosted: 26 Apr 2012 
консэрваторъ
Joined: 11 Aug 2007
Posts: 16068
Lоcаtion: Псков
Age: 44
Name: Сергей
Ну раз Саныч тут начал обозить, тогда и я пару слов скажу...

1986 Possessed By Fire - классика, шедевр, рафинад :true:
1987 Rising From The Sea - самоплагиат, остановка прогресса, нудноватость :(
2012 Fire & Damnation - вот как надо возвращаться после 25 лет запоя :true: :true: :true: Мощ, напор, агрессия, рубилово, циркулярное пилилово, олдскулово без соплей, великолепнейшее владение инструментами, бальзамирующее душу звучание... несомненно один из алмазов современного трэша :true: :true: :true:

_________________
THRASH 'EM ALL


Top
 Profile E-mail  
 
 
PostPosted: 26 Apr 2012 
Хиппей (support team)
User avatar
Joined: 30 Jul 2007
Posts: 107143
Lоcаtion: Киев (Kyiv, UA)
Age: 45
Name: Andrey
Privateer wrote:
На этом альбоме поёт не он.

Ага, точно. Спасибо за поправку. И я ж сверял инфу и с М-А и на картинке с альбома. Лажанулся :fingal:

_________________


Top
 Profile E-mail  
 
 
PostPosted: 26 Apr 2012 
Анатолий
User avatar
Joined: 18 Oct 2008
Posts: 3133
Lоcаtion: Армавир
Age: 41
Name: Анатолий
splatty wrote:
1987 Rising From The Sea - самоплагиат, остановка прогресса, нудноватость


Да просто удачных номеров маловато...


Top
 Profile E-mail  
 
 
PostPosted: 26 Apr 2012 
Хиппей (support team)
User avatar
Joined: 30 Jul 2007
Posts: 107143
Lоcаtion: Киев (Kyiv, UA)
Age: 45
Name: Andrey
Зато альбом очень целостно, монолитно звучит. Но это то меня, например, уже совсем не удовлетворяет :pardon:
Наоборот, хочется разнообразия.

_________________


Top
 Profile E-mail  
 
 
PostPosted: 27 Apr 2012 
консэрваторъ
Joined: 11 Aug 2007
Posts: 16068
Lоcаtion: Псков
Age: 44
Name: Сергей
Да, и по демке забыл... 1989 Whips & Chains (demo) - неординарно, интересно, не понятно, куда бы это привело...
А чего группа распалась-то тогда? Кто знает?

_________________
THRASH 'EM ALL


Top
 Profile E-mail  
 
Display posts from previous:  Sort by  
Post new topic Reply to topic  [ 10 posts ] 

All times are UTC + 3 hours


Who is online

Users browsing this forum: No registered users and 1 guest


You cannot post new topics in this forum
You cannot reply to topics in this forum
You cannot edit your posts in this forum
You cannot delete your posts in this forum
You cannot post attachments in this forum

Search for:
Яндекс.Метрика
Powered by phpBB © 2000, 2002, 2005, 2007 phpBB Group