\m/ 80's metal \m/

Информационно-аналитический форум "80 см пыли" (In Search We Trust) "У нас никто никуда не спешит"
Me For You - http://me-4u.com
It is currently 23 Oct 2018

All times are UTC + 3 hours

Spoiler
Chat - temporary registration for foreign users (please leave your application here)







Post new topic Reply to topic  [ 8 posts ] 
Author Message
 
PostPosted: 20 Aug 2017 
Работнечег
User avatar
Joined: 28 Aug 2007
Posts: 5470
Lоcаtion: г. Москва
Age: 29
Name: Дима
Image

Year: 1993
Style: Hard Rock
Country: USA
Audio: Flac+Cue+Log+Scans
Size: 305 Mb
Label: Green Vine Records

Line-Up:
John Sylvia - Vocals, Acoustic Guitar
Tom Samuelson - Drums, Percussion
Randy Pepper - Rhytm and Lead Guitars
Jason Boekelheide - Bass Guitar, Keyboards


Tracklist:
1. The Chance
2. Last One
3. Feed My Soul
4. Remember When
5. Requiem
6. One Man
7. The Rise And Fall Of Maxwell
8. Shadow Train
9. Indian Summer
10. Save Yourself
11. The Unknown

LOG
Exact Audio Copy V0.99 prebeta 5 from 4. May 2009

EAC extraction logfile from 29. May 2017, 19:17

Einstein's Attic / Sound And Fury

Used drive : PIONEER DVD-RW DVR-221 Adapter: 2 ID: 1

Read mode : Secure
Utilize accurate stream : Yes
Defeat audio cache : Yes
Make use of C2 pointers : No

Read offset correction : 6
Overread into Lead-In and Lead-Out : No
Fill up missing offset samples with silence : Yes
Delete leading and trailing silent blocks : No
Null samples used in CRC calculations : Yes
Used interface : Native Win32 interface for Win NT & 2000

Used output format : User Defined Encoder
Selected bitrate : 32 kBit/s
Quality : High
Add ID3 tag : No
Command line compressor : C:\Program Files\Exact Audio Copy\Flac\flac.exe
Additional command line options : -6 -V %s


TOC of the extracted CD

Track | Start | Length | Start sector | End sector
---------------------------------------------------------
1 | 0:00.00 | 4:20.60 | 0 | 19559
2 | 4:20.60 | 3:32.25 | 19560 | 35484
3 | 7:53.10 | 4:44.67 | 35485 | 56851
4 | 12:38.02 | 4:27.25 | 56852 | 76901
5 | 17:05.27 | 4:08.43 | 76902 | 95544
6 | 21:13.70 | 3:32.60 | 95545 | 111504
7 | 24:46.55 | 6:07.32 | 111505 | 139061
8 | 30:54.12 | 2:25.38 | 139062 | 149974
9 | 33:19.50 | 3:57.72 | 149975 | 167821
10 | 37:17.47 | 2:49.33 | 167822 | 180529
11 | 40:07.05 | 6:56.02 | 180530 | 211731


Range status and errors

Selected range

Filename D:\Музыка\Lossless\Einstein's Attic - Sound And Fury (1993)\Einstein's Attic - Sound And Fury.wav

Peak level 98.8 %
Range quality 100.0 %
Copy CRC 4863AFD7
Copy OK

No errors occurred


AccurateRip summary

Track 1 not present in database
Track 2 not present in database
Track 3 not present in database
Track 4 not present in database
Track 5 not present in database
Track 6 not present in database
Track 7 not present in database
Track 8 not present in database
Track 9 not present in database
Track 10 not present in database
Track 11 not present in database

None of the tracks are present in the AccurateRip database

End of status report

CUE
REM GENRE "Heavy Metal"
REM DATE 1993
REM DISCID 8D0B070B
REM COMMENT "ExactAudioCopy v0.99pb5"
PERFORMER "Einstein's Attic"
TITLE "Sound And Fury"
FILE "Einstein's Attic - Sound And Fury.flac" WAVE
TRACK 01 AUDIO
TITLE "The Chance"
PERFORMER "Einstein's Attic"
INDEX 01 00:00:00
TRACK 02 AUDIO
TITLE "Last One"
PERFORMER "Einstein's Attic"
INDEX 00 04:18:60
INDEX 01 04:20:60
TRACK 03 AUDIO
TITLE "Feed My Soul"
PERFORMER "Einstein's Attic"
INDEX 00 07:49:52
INDEX 01 07:53:10
TRACK 04 AUDIO
TITLE "Remember When"
PERFORMER "Einstein's Attic"
INDEX 00 12:33:60
INDEX 01 12:38:02
TRACK 05 AUDIO
TITLE "Requiem"
PERFORMER "Einstein's Attic"
INDEX 00 17:00:62
INDEX 01 17:05:27
TRACK 06 AUDIO
TITLE "One Man"
PERFORMER "Einstein's Attic"
INDEX 00 21:09:25
INDEX 01 21:13:70
TRACK 07 AUDIO
TITLE "The Rise And Fall Of Maxwell"
PERFORMER "Einstein's Attic"
INDEX 00 24:41:35
INDEX 01 24:46:55
TRACK 08 AUDIO
TITLE "Shadow Train"
PERFORMER "Einstein's Attic"
INDEX 00 30:48:65
INDEX 01 30:54:12
TRACK 09 AUDIO
TITLE "Indian Summer"
PERFORMER "Einstein's Attic"
INDEX 00 33:16:22
INDEX 01 33:19:50
TRACK 10 AUDIO
TITLE "Save Yourself"
PERFORMER "Einstein's Attic"
INDEX 00 37:12:67
INDEX 01 37:17:47
TRACK 11 AUDIO
TITLE "The Unknown"
PERFORMER "Einstein's Attic"
INDEX 00 40:04:15
INDEX 01 40:07:05


Yadi

За предоставленный диск спасибо говорим Сашу spryt777. Альбом я поделил бы на медленные и среднетемповые, которых 3/4 на альбоме и пара песен поскоростнее, из которых у группы явно не получилось выжать что-то толковое.
Очень хорошее начало альбома: отличная баллада Remember When, неспешные The Chance, Last One и Feed My Soul. Из второй части выделю Indian Summer и The Unknown.



Last edited by Scatterbrain on 23 Aug 2017, edited 1 time in total.
Подправил чуть название топика


Top
 Profile E-mail  
 
 
PostPosted: 20 Aug 2017 
Хиппей (support team)
User avatar
Joined: 30 Jul 2007
Posts: 107143
Lоcаtion: Киев (Kyiv, UA)
Age: 45
Name: Andrey
:thanx:

mirror: Depos l Narod l Drop l M-Cloud

_________________


Top
 Profile E-mail  
 
 
PostPosted: 20 Aug 2017 
спирт 100%
User avatar
Joined: 22 Sep 2008
Posts: 4305
Age: 47
Name: Саня
:thanx:


Top
 Profile  
 
 
PostPosted: 23 Aug 2017 
Хиппей (support team)
User avatar
Joined: 30 Jul 2007
Posts: 107143
Lоcаtion: Киев (Kyiv, UA)
Age: 45
Name: Andrey
Дима не упомянул самого главного - альбом записан в неформатном стиле. А именно - хэви-метол с альтернативой.
Да, несколько песен весьма хороши, несколько очень похожи на Метлу того де времени. Но в основе это убогое альтернативное УГ :(

Хотя, повторюсь, несколько песен заслуживают внимания и весьма.

4/10

_________________


Top
 Profile E-mail  
 
 
PostPosted: 23 Aug 2017 
Работнечег
User avatar
Joined: 28 Aug 2007
Posts: 5470
Lоcаtion: г. Москва
Age: 29
Name: Дима
Я хотел про это упомянуть, но поскольку это в целом больше эпизодические моменты в нескольких песнях, то не стал. В целом примерно согласен с рецензией, оценку может чуть повыше поставил бы.


Top
 Profile E-mail  
 
 
PostPosted: 23 Aug 2017 
Хиппей (support team)
User avatar
Joined: 30 Jul 2007
Posts: 107143
Lоcаtion: Киев (Kyiv, UA)
Age: 45
Name: Andrey
church wrote:
Я хотел про это упомянуть, но поскольку это в целом больше эпизодические моменты в нескольких песнях, то не стал.

Не, Дим, как раз в каждой, даже в балладе :(
По ходу, ты как и Серёга splatty, не всегда отличаешь эту самую "альтернативу" в тяжёлой музыке :pardon:

Олег Спиралыч отличает, если что. Потому и любит прог с альтернативкой всякой.
И Егор тоже отличает.

_________________


Top
 Profile E-mail  
 
 
PostPosted: 24 Aug 2017 
Работнечег
User avatar
Joined: 28 Aug 2007
Posts: 5470
Lоcаtion: г. Москва
Age: 29
Name: Дима
Нуу возможно)) По сути самое главное, что оценку альбому это никак не меняет, а если музон был бы классный, то было бы не так важно в какой стиль его записать.


Top
 Profile E-mail  
 
 
PostPosted: 24 Aug 2017 
Хиппей (support team)
User avatar
Joined: 30 Jul 2007
Posts: 107143
Lоcаtion: Киев (Kyiv, UA)
Age: 45
Name: Andrey
Ну да, стили вовсе не важны, если не смотреть на название форума и его подзаголовки :kro:

_________________


Top
 Profile E-mail  
 
Display posts from previous:  Sort by  
Post new topic Reply to topic  [ 8 posts ] 

All times are UTC + 3 hours


Who is online

Users browsing this forum: No registered users and 1 guest


You cannot post new topics in this forum
You cannot reply to topics in this forum
You cannot edit your posts in this forum
You cannot delete your posts in this forum
You cannot post attachments in this forum

Search for:
Яндекс.Метрика
Powered by phpBB © 2000, 2002, 2005, 2007 phpBB Group