\m/ 80's metal \m/

Информационно-аналитический форум "80 см пыли" (In Search We Trust) "У нас никто никуда не спешит"
Me For You - http://me-4u.com
It is currently 08 Dec 2019

All times are UTC + 3 hours

Spoiler
Chat - temporary registration for foreign users (please leave your application here)







Post new topic Reply to topic  [ 9 posts ] 
Author Message
 
PostPosted: 11 Jan 2017 
Хиппей (support team)
User avatar
Joined: 30 Jul 2007
Posts: 116009
Lоcаtion: Киев (Kyiv, UA)
Age: 46
Name: Andrey
Eternal Champion - 2016 - The Armor Of Ire [flac]

Image Image Image

    1. I Am the Hammer - 05:15
    2. The Armor of Ire - 04:55
    3. The Last King of Pictdom - 04:13
    4. Blood Ice (instrumental) - 02:03
    5. The Cold Sword - 04:03
    6. Invoker - 04:31
    7. Sing a Last Song of Valdese - 06:04
    8. Shade Gate (instrumental) - 03:14

    TPT: 34:18

mirror: iFolder l Narod l M-Cloud


По наводке Лёши Энтомологиста :thanx: viewtopic.php?p=286247#p286247 Взято отсюда :arrow: https://rutracker.org/forum/viewtopic.php?t=5318399 :thanx:

Альбом хоть и не очень разнообразный и яркий, но всё же весьма понравился.
И ещё есть маза, что к следующему релизу ребята подготовятся более тщательно.

4/10

Звук, кстати, какой-то не очень живой у альбома :scratch:



log
Exact Audio Copy V1.0 beta 3 from 29. August 2011

EAC extraction logfile from 28. November 2016, 21:49

Eternal Champion / The Armor Of Ire

Used drive : Optiarc DVD RW AD-7260S Adapter: 1 ID: 1

Read mode : Secure
Utilize accurate stream : Yes
Defeat audio cache : Yes
Make use of C2 pointers : No

Read offset correction : 48
Overread into Lead-In and Lead-Out : No
Fill up missing offset samples with silence : Yes
Delete leading and trailing silent blocks : No
Null samples used in CRC calculations : Yes
Used interface : Native Win32 interface for Win NT & 2000

Used output format : Internal WAV Routines
Sample format : 44.100 Hz; 16 Bit; Stereo


TOC of the extracted CD

Track | Start | Length | Start sector | End sector
---------------------------------------------------------
1 | 0:00.00 | 5:14.72 | 0 | 23621
2 | 5:14.72 | 4:54.66 | 23622 | 45737
3 | 10:09.63 | 4:12.53 | 45738 | 64690
4 | 14:22.41 | 2:03.04 | 64691 | 73919
5 | 16:25.45 | 4:02.68 | 73920 | 92137
6 | 20:28.38 | 4:30.50 | 92138 | 112437
7 | 24:59.13 | 6:04.02 | 112438 | 139739
8 | 31:03.15 | 3:13.69 | 139740 | 154283


Range status and errors

Selected range

Filename C:\Мои документы\Eternal Champion - 2016 - The Armor Of Ire.wav

Peak level 100.0 %
Extraction speed 1.8 X
Range quality 100.0 %
Test CRC 592E336C
Copy CRC 592E336C
Copy OK

No errors occurred


AccurateRip summary

Track 1 not present in database
Track 2 not present in database
Track 3 not present in database
Track 4 not present in database
Track 5 not present in database
Track 6 not present in database
Track 7 not present in database
Track 8 not present in database

None of the tracks are present in the AccurateRip database

End of status report

---- CUETools DB Plugin V2.1.4

[CTDB TOCID: kblpx16ADRtwDWUVIYN_ssMo2hE-] found
Submit result: kblpx16ADRtwDWUVIYN_ssMo2hE- has been confirmed
Track | CTDB Status
1 | (5/5) Accurately ripped
2 | (5/5) Accurately ripped
3 | (5/5) Accurately ripped
4 | (5/5) Accurately ripped
5 | (5/5) Accurately ripped
6 | (5/5) Accurately ripped
7 | (5/5) Accurately ripped
8 | (5/5) Accurately ripped


==== Log checksum 4BC8A780D880EEFD6E08FB1AB907D68F3C25D5D31470E2075C5ED99873C4C342 ====

cue
REM GENRE "Epic Heavy Metal"
REM DATE 2016
REM DISCID 5F080908
REM COMMENT "ExactAudioCopy v1.0b3"
PERFORMER "Eternal Champion"
TITLE "The Armor Of Ire"
FILE "Eternal Champion - 2016 - The Armor Of Ire.flac" WAVE
TRACK 01 AUDIO
TITLE "I Am The Hammer"
PERFORMER "Eternal Champion"
INDEX 01 00:00:00
TRACK 02 AUDIO
TITLE "The Armor Of Ire"
PERFORMER "Eternal Champion"
INDEX 01 05:14:72
TRACK 03 AUDIO
TITLE "The Last King Of Pictdom"
PERFORMER "Eternal Champion"
INDEX 01 10:09:63
TRACK 04 AUDIO
TITLE "Blood Ice"
PERFORMER "Eternal Champion "
INDEX 01 14:22:41
TRACK 05 AUDIO
TITLE "The Cold Sword"
PERFORMER "Eternal Champion"
INDEX 01 16:25:45
TRACK 06 AUDIO
TITLE "Invoker"
PERFORMER "Eternal Champion"
INDEX 01 20:28:38
TRACK 07 AUDIO
TITLE "Sing A Last Song Of Valdese"
PERFORMER "Eternal Champion"
INDEX 01 24:59:13
TRACK 08 AUDIO
TITLE "Shade Gate"
PERFORMER "Eternal Champion"
INDEX 01 31:03:15


Image Image Image
ImageImage Image

_________________


Top
 Profile E-mail  
 
 
PostPosted: 13 Jan 2017 
Рарник и трушник
User avatar
Joined: 25 Dec 2009
Posts: 8836
Lоcаtion: Москва
Age: 54
Name: Виталий
Scatterbrain wrote:
Альбом хоть и не очень разнообразный и яркий, но всё же весьма понравился.

Тебе понравился подобный эпик? :vic: Очень удивительно. :vic:
Scatterbrain wrote:
Звук, кстати, какой-то не очень живой у альбома

Да полный отстой звук. :vic:
За раздачу :thanx: Я бы эту шнягу с треккера поленился бы качать. :pardon:


Top
 Profile  
 
 
PostPosted: 13 Jan 2017 
Хиппей (support team)
User avatar
Joined: 30 Jul 2007
Posts: 116009
Lоcаtion: Киев (Kyiv, UA)
Age: 46
Name: Andrey
Vitaly65 wrote:
Тебе понравился подобный эпик? :vic:

Ну есть намного лучше группы в подобном стиле, потому я и отнёсся критически к альбому и выставил законную оценку. По-моему.
Vitaly65 wrote:
Да полный отстой звук. :vic:

Не, отстой в моём понимании это лайв-бутлег от 1989 года группы Satan's Host, который я не перестаю вспоминать :horro:
А здесь просто неживой звук и плоский какой-то как плотва сушёная. Ощущение, что записывалось дома на айфон-3 украинской сборки.

_________________


Top
 Profile E-mail  
 
 
PostPosted: 13 Jan 2017 
Рарник и трушник
User avatar
Joined: 25 Dec 2009
Posts: 8836
Lоcаtion: Москва
Age: 54
Name: Виталий
Scatterbrain wrote:
Не, отстой в моём понимании это лайв-бутлег от 1989 года группы Satan's Host, который я не перестаю вспоминать :horro:

Ну да, сравни ещё вшивый бутлег с официальным релизом, Андрушко, ты мну не перестаёшь удивлять. :vic:
Scatterbrain wrote:
Ощущение, что записывалось дома на айфон-3 украинской сборки.

Я думал у вас там тока айфон-2 собирают, а айфон-3 на сало выменяли. :benya:
Так может они там у вас и записывались? Иначе как объяснить такой сушеный звук? :benya:


Top
 Profile  
 
 
PostPosted: 13 Jan 2017 
Хиппей (support team)
User avatar
Joined: 30 Jul 2007
Posts: 116009
Lоcаtion: Киев (Kyiv, UA)
Age: 46
Name: Andrey
Vitaly65 wrote:
Ну да, сравни ещё вшивый бутлег с официальным релизом

Я сравнивал в разрезе качества саунда. И там и сям он плохенький. Но у трэшеров намного хуже. Хуже бутлегов я ещё не слышал пока.
А вот хуже студийных работ, чем эта - мульон.
Так явно будет правильно выразиться в сравнениях?

_________________


Top
 Profile E-mail  
 
 
PostPosted: 13 Jan 2017 
Рарник и трушник
User avatar
Joined: 25 Dec 2009
Posts: 8836
Lоcаtion: Москва
Age: 54
Name: Виталий
Scatterbrain wrote:
Так явно будет правильно выразиться в сравнениях?

Ну если за уши, да из болота - то да. :pardon:


Top
 Profile  
 
 
PostPosted: 13 Jan 2017 
Хиппей (support team)
User avatar
Joined: 30 Jul 2007
Posts: 116009
Lоcаtion: Киев (Kyiv, UA)
Age: 46
Name: Andrey
За волосы :lloo:

_________________


Top
 Profile E-mail  
 
 
PostPosted: 16 Nov 2017 
Хиппей (support team)
User avatar
Joined: 30 Jul 2007
Posts: 116009
Lоcаtion: Киев (Kyiv, UA)
Age: 46
Name: Andrey
Однако, как время ухи лечит.
Только что закончил этот альбом слушать на Ютубе :arrow: https://www.youtube.com/watch?v=JJyEuV7Alds
И шо вы думаете?
Да, забираю его теперь в свой топ 16 года :lob: :lob: :lob:

9/10

_________________


Top
 Profile E-mail  
 
 
PostPosted: 17 Nov 2017 
семерых одним ударом
Joined: 18 Aug 2007
Posts: 4289
Lоcаtion: Владивосток
Age: 44
Name: Николай Николаевич
хорошая группа, мне нравится.


Top
 Profile  
 
Display posts from previous:  Sort by  
Post new topic Reply to topic  [ 9 posts ] 

All times are UTC + 3 hours


Who is online

Users browsing this forum: No registered users and 1 guest


You cannot post new topics in this forum
You cannot reply to topics in this forum
You cannot edit your posts in this forum
You cannot delete your posts in this forum
You cannot post attachments in this forum

Search for:
Яндекс.Метрика
Powered by phpBB © 2000, 2002, 2005, 2007 phpBB Group