\m/ 80's metal \m/

Информационно-аналитический форум "80 см пыли" (In Search We Trust) "У нас никто никуда не спешит"
Me For You - http://me-4u.com
It is currently 19 Aug 2019

All times are UTC + 3 hours

Spoiler
Chat - temporary registration for foreign users (please leave your application here)







Post new topic Reply to topic  [ 7 posts ] 
Author Message
 
PostPosted: 09 Dec 2016 
Генеральный thrasher
User avatar
Joined: 03 Oct 2008
Posts: 3717
Lоcаtion: Ханты-Мансийский АО
Age: 44
Name: Сергей
Продолжаю знакомить вас с итальянскими бандами.Второй полнометражник спидушной бригады.Очень добротный материал...

Image

Year:2014
Style:Speed Metal
Country:Italy
Archive:Flac+Cue+Log+Scans
Source:my CD
Size:247Mb
Label:Iron Shield Records

Tracklist:
01. Tell Me (What You Want) 04:18
02. Just Escape 04:33
03. Into The Pub (With No Exit) 03:33
04. Fading Away 03:49
05. Maggots Of Evil 04:14
06. Hidden In The Dark 03:54
07. Earth Massacre 03:08
08. Runaway From The Cross 04:38

"Cue"
REM GENRE "Speed Metal"
REM DATE 2014
REM DISCID 6A079508
REM COMMENT "ExactAudioCopy v1.1"
PERFORMER "Explorer"
TITLE "Shout In The Fog"
FILE "Explorer - Shout In The Fog.flac" WAVE
TRACK 01 AUDIO
TITLE "Tell Me (What You Want)"
PERFORMER "Explorer"
FLAGS DCP
INDEX 01 00:00:00
TRACK 02 AUDIO
TITLE "Just Escape"
PERFORMER "Explorer"
FLAGS DCP
INDEX 01 04:18:01
TRACK 03 AUDIO
TITLE "Into The Pub (With No Exit)"
PERFORMER "Explorer"
FLAGS DCP
INDEX 01 09:01:10
TRACK 04 AUDIO
TITLE "Fading Away"
PERFORMER "Explorer"
FLAGS DCP
INDEX 01 12:34:54
TRACK 05 AUDIO
TITLE "Maggots Of Evil"
PERFORMER "Explorer"
FLAGS DCP
INDEX 01 16:24:49
TRACK 06 AUDIO
TITLE "Hidden In The Dark"
PERFORMER "Explorer"
FLAGS DCP
INDEX 01 20:39:40
TRACK 07 AUDIO
TITLE "Earth Massacre"
PERFORMER "Explorer"
FLAGS DCP
INDEX 01 24:34:18
TRACK 08 AUDIO
TITLE "Runaway From The Cross"
PERFORMER "Explorer"
FLAGS DCP
INDEX 01 27:42:31

"Log"
Exact Audio Copy V1.1 from 23. June 2015

Отчёт EAC об извлечении, выполненном 9. декабря 2016, 8:59

Explorer / Shout In The Fog

Дисковод: HL-DT-STDVDRAM GTA0N Adapter: 1 ID: 0

Режим чтения : Достоверность
Использование точного потока : Да
Отключение кэша аудио : Да
Использование указателей C2 : Нет

Коррекция смещения при чтении : 102
Способность читать области Lead-in и Lead-out : Нет
Заполнение пропущенных сэмплов тишиной : Да
Удаление блоков с тишиной в начале и конце : Нет
При вычислениях CRC использовались нулевые сэмплы : Да
Интерфейс : Встроенный Win32-интерфейс для Win NT/2000

Выходной формат : Пользовательский кодировщик
Выбранный битрейт : 768 kBit/s
Качество : Высокий
Добавление ID3-тега : Нет
Утилита сжатия : C:\Program Files (x86)\Exact Audio Copy\FLAC\FLAC.EXE
Дополнительные параметры : -6 -V -T "ARTIST=%artist%" -T "TITLE=%title%" -T "ALBUM=%albumtitle%" -T "DATE=%year%" -T "TRACKNUMBER=%tracknr%" -T "GENRE=%genre%" -T "COMMENT=%comment%" -T "BAND=%albuminterpret%" -T "ALBUMARTIST=%albuminterpret%" -T "COMPOSER=%composer%" %haslyrics%--tag-from-file=LYRICS="%lyricsfile%"%haslyrics% -T "DISCNUMBER=%cdnumber%" -T "TOTALDISCS=%totalcds%" -T "TOTALTRACKS=%numtracks%" %hascover%--picture="%coverfile%"%hascover% %source% -o %dest%


TOC извлечённого CD

Трек | Старт | Длительность | Начальный сектор | Конечный сектор
---------------------------------------------------------------------
1 | 0:00.00 | 4:18.01 | 0 | 19350
2 | 4:18.01 | 4:43.09 | 19351 | 40584
3 | 9:01.10 | 3:33.44 | 40585 | 56603
4 | 12:34.54 | 3:49.70 | 56604 | 73848
5 | 16:24.49 | 4:14.66 | 73849 | 92964
6 | 20:39.40 | 3:54.53 | 92965 | 110567
7 | 24:34.18 | 3:08.13 | 110568 | 124680
8 | 27:42.31 | 4:38.54 | 124681 | 145584


Характеристики диапазона извлечения и сообщения об ошибках

Выбранный диапазон

Имя файла C:\Users\магазин\Music\Explorer - Shout In The Fog.wav

Пиковый уровень 91.2 %
Скорость извлечения 3.6 X
Качество диапазона 100.0 %
CRC копии D593DFB1
Копирование... OK

Ошибок не произошло


AccurateRip: сводка

Трек 1 отсутствует в базе данных
Трек 2 отсутствует в базе данных
Трек 3 отсутствует в базе данных
Трек 4 отсутствует в базе данных
Трек 5 отсутствует в базе данных
Трек 6 отсутствует в базе данных
Трек 7 отсутствует в базе данных
Трек 8 отсутствует в базе данных

Ни одного трека нет в базе AccurateRip

Конец отчёта

---- CUETools DB Plugin V2.1.6

[CTDB TOCID: WnUwcgYfSI38fnyJZWb5yUToQR8-] found
Submit result: WnUwcgYfSI38fnyJZWb5yUToQR8- has been confirmed
Track | CTDB Status
1 | (1/1) Accurately ripped
2 | (1/1) Accurately ripped
3 | (1/1) Accurately ripped
4 | (1/1) Accurately ripped
5 | (1/1) Accurately ripped
6 | (1/1) Accurately ripped
7 | (1/1) Accurately ripped
8 | (1/1) Accurately ripped


Shout In The Fog


Top
 Profile  
 
 
PostPosted: 09 Dec 2016 
А может смените мне статус?..
User avatar
Joined: 28 Jul 2008
Posts: 990
Lоcаtion: Украина---Днепропетровск
Age: 45
Name: Александр
:thanx:

_________________
Музыка в которой я растворяюсь многих угнетает......


Top
 Profile  
 
 
PostPosted: 09 Dec 2016 
Прокъмитолист
User avatar
Joined: 12 Aug 2007
Posts: 6590
Lоcаtion: Санктъ-Петербуркъ
Age: 51
Name: Олекъ
:thanx:

_________________
прокъметол - это музыко, от которово есть прок (ы)


Top
 Profile  
 
 
PostPosted: 09 Dec 2016 
Генеральный thrasher
User avatar
Joined: 03 Oct 2008
Posts: 3717
Lоcаtion: Ханты-Мансийский АО
Age: 44
Name: Сергей
ДА,смотрю хорошие коллективы никого особо не интересуют. :(


Top
 Profile  
 
 
PostPosted: 09 Dec 2016 
Я набрал 1000 сообщений!
Joined: 09 Jul 2008
Posts: 2990
Age: 46
Name: Сергей
почему?
оч неплохая группа
просто меня лоси не интересуют, а в мп3 с февраля 15го лежит )


Top
 Profile  
 
 
PostPosted: 10 Dec 2016 
Я набрал 1000 сообщений!
Joined: 02 Aug 2007
Posts: 1407
Lоcаtion: пос. Удельная
Age: 42
Name: Стас
:thanx:


Top
 Profile  
 
 
PostPosted: 10 Dec 2016 
консэрваторъ
User avatar
Joined: 11 Aug 2007
Posts: 17156
Lоcаtion: Псков
Age: 45
Name: Сергей
:scratch: не... :nea:

_________________
THRASH 'EM ALL


Top
 Profile E-mail  
 
Display posts from previous:  Sort by  
Post new topic Reply to topic  [ 7 posts ] 

All times are UTC + 3 hours


Who is online

Users browsing this forum: No registered users and 1 guest


You cannot post new topics in this forum
You cannot reply to topics in this forum
You cannot edit your posts in this forum
You cannot delete your posts in this forum
You cannot post attachments in this forum

Search for:
Яндекс.Метрика
Powered by phpBB © 2000, 2002, 2005, 2007 phpBB Group