\m/ 80's metal \m/

Информационно-аналитический форум "80 см пыли" (In Search We Trust) "У нас никто никуда не спешит"
Me For You - http://me-4u.com
It is currently 20 Apr 2019

All times are UTC + 3 hours

Spoiler
Chat - temporary registration for foreign users (please leave your application here)







Post new topic Reply to topic  [ 8 posts ] 
Author Message
 
PostPosted: 18 Mar 2016 
Генеральный thrasher
User avatar
Joined: 03 Oct 2008
Posts: 3695
Lоcаtion: Ханты-Мансийский АО
Age: 44
Name: Сергей
Единственный полный альбом неплохой германской команды.

Image

Year:1996
Style:Thrash Metal
Country:Germany
Archive:Flac+Cue+Log+Scans
Size:310Mb
Source:my CD
Label:Self-Release

Tracklist:
01. Crystal Light 05:37
02. Depressive 03:14
03. Gods Of War 04:21
04. The Unborn 03:27
05. Heaven Turning Into Hell 07:27
06. Fred Leuchter 03:58
07. Die For Allah 06:49
08. In Your Face 04:49

"Cue"
REM GENRE "Thrash Metal"
REM DATE 1996
REM DISCID 68094E08
REM COMMENT "ExactAudioCopy v1.1"
PERFORMER "Exhumator"
TITLE "In Your Face"
FILE "Exhumator - In Your Face.flac" WAVE
TRACK 01 AUDIO
TITLE "Crystal Light"
PERFORMER "Exhumator"
FLAGS DCP
INDEX 01 00:00:00
TRACK 02 AUDIO
TITLE "Depressive"
PERFORMER "Exhumator"
FLAGS DCP
INDEX 01 05:37:35
TRACK 03 AUDIO
TITLE "Gods Of War"
PERFORMER "Exhumator"
FLAGS DCP
INDEX 01 08:51:06
TRACK 04 AUDIO
TITLE "The Unborn"
PERFORMER "Exhumator"
FLAGS DCP
INDEX 01 13:12:62
TRACK 05 AUDIO
TITLE "Heaven Turning Into Hell"
PERFORMER "Exhumator"
FLAGS DCP
INDEX 01 16:39:48
TRACK 06 AUDIO
TITLE "Fred Leuchter"
PERFORMER "Exhumator"
FLAGS DCP
INDEX 01 24:06:47
TRACK 07 AUDIO
TITLE "Die For Allah"
PERFORMER "Exhumator"
FLAGS DCP
INDEX 00 28:04:49
INDEX 01 28:04:50
TRACK 08 AUDIO
TITLE "In Your Face"
PERFORMER "Exhumator"
FLAGS DCP
INDEX 01 34:53:67

"Log"
Exact Audio Copy V1.1 from 23. June 2015

Отчёт EAC об извлечении, выполненном 14. марта 2016, 11:03

Exhumator / In Your Face

Дисковод: HL-DT-STDVDRAM GTA0N Adapter: 1 ID: 0

Режим чтения : Достоверность
Использование точного потока : Да
Отключение кэша аудио : Да
Использование указателей C2 : Нет

Коррекция смещения при чтении : 102
Способность читать области Lead-in и Lead-out : Нет
Заполнение пропущенных сэмплов тишиной : Да
Удаление блоков с тишиной в начале и конце : Нет
При вычислениях CRC использовались нулевые сэмплы : Да
Интерфейс : Встроенный Win32-интерфейс для Win NT/2000

Выходной формат : Пользовательский кодировщик
Выбранный битрейт : 768 kBit/s
Качество : Высокий
Добавление ID3-тега : Нет
Утилита сжатия : C:\Program Files (x86)\Exact Audio Copy\FLAC\FLAC.EXE
Дополнительные параметры : -6 -V -T "ARTIST=%artist%" -T "TITLE=%title%" -T "ALBUM=%albumtitle%" -T "DATE=%year%" -T "TRACKNUMBER=%tracknr%" -T "GENRE=%genre%" -T "COMMENT=%comment%" -T "BAND=%albuminterpret%" -T "ALBUMARTIST=%albuminterpret%" -T "COMPOSER=%composer%" %haslyrics%--tag-from-file=LYRICS="%lyricsfile%"%haslyrics% -T "DISCNUMBER=%cdnumber%" -T "TOTALDISCS=%totalcds%" -T "TOTALTRACKS=%numtracks%" %hascover%--picture="%coverfile%"%hascover% %source% -o %dest%


TOC извлечённого CD

Трек | Старт | Длительность | Начальный сектор | Конечный сектор
---------------------------------------------------------------------
1 | 0:00.00 | 5:37.35 | 0 | 25309
2 | 5:37.35 | 3:13.46 | 25310 | 39830
3 | 8:51.06 | 4:21.56 | 39831 | 59461
4 | 13:12.62 | 3:26.61 | 59462 | 74972
5 | 16:39.48 | 7:26.74 | 74973 | 108496
6 | 24:06.47 | 3:58.03 | 108497 | 126349
7 | 28:04.50 | 6:49.17 | 126350 | 157041
8 | 34:53.67 | 4:48.44 | 157042 | 178685


Характеристики диапазона извлечения и сообщения об ошибках

Выбранный диапазон

Имя файла C:\Users\магазин\Music\Exhumator - In Your Face.wav

Пиковый уровень 100.0 %
Скорость извлечения 3.7 X
Качество диапазона 100.0 %
CRC копии BA3691D8
Копирование... OK

Ошибок не произошло


AccurateRip: сводка

Трек 1 отсутствует в базе данных
Трек 2 отсутствует в базе данных
Трек 3 отсутствует в базе данных
Трек 4 отсутствует в базе данных
Трек 5 отсутствует в базе данных
Трек 6 отсутствует в базе данных
Трек 7 отсутствует в базе данных
Трек 8 отсутствует в базе данных

Ни одного трека нет в базе AccurateRip

Конец отчёта

---- CUETools DB Plugin V2.1.6

[CTDB TOCID: 3aYEsxz2gxJeQQ6aqnJOp_c8sMc-] found
Submit result: 3aYEsxz2gxJeQQ6aqnJOp_c8sMc- has been confirmed
Track | CTDB Status
1 | (1/1) Accurately ripped
2 | (1/1) Accurately ripped
3 | (1/1) Accurately ripped
4 | (1/1) Accurately ripped
5 | (1/1) Accurately ripped
6 | (1/1) Accurately ripped
7 | (1/1) Accurately ripped
8 | (1/1) Accurately ripped


In Your Face


Top
 Profile  
 
 
PostPosted: 18 Mar 2016 
Alive Again
User avatar
Joined: 17 Dec 2008
Posts: 4747
Lоcаtion: Курск Воронеж Оскол
Age: 44
Name: Дмитрий
:thanx:


Top
 Profile E-mail  
 
 
PostPosted: 18 Mar 2016 
Прокъмитолист
User avatar
Joined: 12 Aug 2007
Posts: 6545
Lоcаtion: Санктъ-Петербуркъ
Age: 51
Name: Олекъ
:thanx:

_________________
прокъметол - это музыко, от которово есть прок (ы)


Top
 Profile  
 
 
PostPosted: 18 Mar 2016 
семерых одним ударом
Joined: 18 Aug 2007
Posts: 3981
Lоcаtion: Владивосток
Age: 43
Name: Николай Николаевич
пойду на рутрекер качну...


Top
 Profile  
 
 
PostPosted: 18 Mar 2016 
А может смените мне статус?..
User avatar
Joined: 25 Mar 2009
Posts: 619
Lоcаtion: Нижний Новгород
Age: 49
Name: Владимир
Качнул, послушал... очень понравилось!
:thanx: :true: :true:


Top
 Profile  
 
 
PostPosted: 19 Mar 2016 
консэрваторъ
Joined: 11 Aug 2007
Posts: 16815
Lоcаtion: Псков
Age: 45
Name: Сергей
Так вот кого скопировали Perzonal War оказывается... :meloman:

_________________
THRASH 'EM ALL


Top
 Profile E-mail  
 
 
PostPosted: 21 Mar 2016 
ТрэшЭрос
User avatar
Joined: 18 Jul 2011
Posts: 2303
Lоcаtion: Гулькевичи
Age: 44
Name: Александр
:thanx:

_________________
Thrash no trash!!!


Top
 Profile E-mail  
 
 
PostPosted: 03 Apr 2016 
Работнечег
User avatar
Joined: 28 Aug 2007
Posts: 5804
Lоcаtion: г. Москва
Age: 30
Name: Дима
Есть такой дисочек, так пока и не добрался послушать..


Top
 Profile E-mail  
 
Display posts from previous:  Sort by  
Post new topic Reply to topic  [ 8 posts ] 

All times are UTC + 3 hours


Who is online

Users browsing this forum: No registered users and 1 guest


You cannot post new topics in this forum
You cannot reply to topics in this forum
You cannot edit your posts in this forum
You cannot delete your posts in this forum
You cannot post attachments in this forum

Search for:
Яндекс.Метрика
Powered by phpBB © 2000, 2002, 2005, 2007 phpBB Group