\m/ 80's metal \m/

Информационно-аналитический форум "80 см пыли" (In Search We Trust) "У нас никто никуда не спешит"
Me For You - http://me-4u.com
It is currently 19 Aug 2019

All times are UTC + 3 hours

Spoiler
Chat - temporary registration for foreign users (please leave your application here)







Post new topic Reply to topic  [ 22 posts ]  Go to page Previous  1, 2
Author Message
 
PostPosted: 19 Mar 2018 
Хиппей (support team)
User avatar
Joined: 30 Jul 2007
Posts: 113993
Lоcаtion: Киев (Kyiv, UA)
Age: 46
Name: Andrey
Eliminator - 2011 - And the Brokenhearted Balladeers [flac]

Image

    1. Cuttin' You Down (Switchblade Fighter) - 06:32
    2. No Answers - 07:30
    3. Near Dark - 09:41
    4. Sex, Drinks, and Music... in My Grave - 04:39
    5. Just Ain't the Same - 06:23
    6. Route 69 - 05:05
    7. Punk Island - 01:27
    8. Amor Fati - 08:09
    9. Time Is on Your Side - 04:49
    10. Crystal Ball - 08:11

    TPT: 01:02:26

mirror: Giga l Drop l Narod l M-Cloud

А этот альбом оказался окровенным говнищем :dance:
Alternative Rock с непонятно зачем здесь вообще нужен. Но пусть будет и здесь, раз скачал..

3/10

log
Exact Audio Copy V1.0 beta 1 from 15. November 2010

EAC extraction logfile from 25. March 2011, 18:52

Eliminator / And the Brokenhearted Balladeers

Used drive : TSSTcorp - CDDVDW TS-L633A AS00 Adapter: 2 ID: 1

Read mode : Secure
Utilize accurate stream : Yes
Defeat audio cache : Yes
Make use of C2 pointers : No

Read offset correction : 6
Overread into Lead-In and Lead-Out : No
Fill up missing offset samples with silence : Yes
Delete leading and trailing silent blocks : No
Null samples used in CRC calculations : Yes
Used interface : Native Win32 interface for Win NT & 2000

Used output format : Internal WAV Routines
Sample format : 44.100 Hz; 16 Bit; Stereo


TOC of the extracted CD

Track | Start | Length | Start sector | End sector
---------------------------------------------------------
1 | 0:00.00 | 6:31.35 | 0 | 29359
2 | 6:31.35 | 7:30.16 | 29360 | 63125
3 | 14:01.51 | 9:40.61 | 63126 | 106686
4 | 23:42.37 | 4:38.40 | 106687 | 127576
5 | 28:21.02 | 6:23.25 | 127577 | 156326
6 | 34:44.27 | 5:04.72 | 156327 | 179198
7 | 39:49.24 | 1:26.39 | 179199 | 185687
8 | 41:15.63 | 8:09.22 | 185688 | 222384
9 | 49:25.10 | 4:48.48 | 222385 | 244032
10 | 54:13.58 | 8:11.16 | 244033 | 280873


Range status and errors

Selected range

Filename D:\LOSSLESS\UPLOAD\Eliminator 2011 - And the Brokenhearted Balladeers\Eliminator - And the Brokenhearted Balladeers.wav

Peak level 98.2 %
Extraction speed 1.9 X
Range quality 100.0 %
Test CRC A32BEAD0
Copy CRC A32BEAD0
Copy OK

No errors occurred


AccurateRip summary

Track 1 not present in database
Track 2 not present in database
Track 3 not present in database
Track 4 not present in database
Track 5 not present in database
Track 6 not present in database
Track 7 not present in database
Track 8 not present in database
Track 9 not present in database
Track 10 not present in database

None of the tracks are present in the AccurateRip database

End of status report

cue
REM GENRE "Thrash Metal"
REM DATE 2011
REM DISCID 900EA00A
REM COMMENT "ExactAudioCopy v1.0b1"
PERFORMER "Eliminator"
TITLE "And the Brokenhearted Balladeers "
FILE "Eliminator - And the Brokenhearted Balladeers.flac" WAVE
TRACK 01 AUDIO
TITLE "Cuttin' You Down (Switchblade Fighter)"
PERFORMER "Eliminator"
INDEX 01 00:00:00
TRACK 02 AUDIO
TITLE "No Answers"
PERFORMER "Eliminator"
INDEX 01 06:31:35
TRACK 03 AUDIO
TITLE "Near Dark"
PERFORMER "Eliminator"
INDEX 01 14:01:51
TRACK 04 AUDIO
TITLE "Sex, Drinks, And Music...In My Grave"
PERFORMER "Eliminator"
INDEX 01 23:42:37
TRACK 05 AUDIO
TITLE "Just Ain't The Same"
PERFORMER "Eliminator"
INDEX 01 28:21:02
TRACK 06 AUDIO
TITLE "Route 69"
PERFORMER "Eliminator"
INDEX 01 34:44:27
TRACK 07 AUDIO
TITLE "Punk Island"
PERFORMER "Eliminator"
INDEX 01 39:49:24
TRACK 08 AUDIO
TITLE "Amor Fati"
PERFORMER "Eliminator"
INDEX 01 41:15:63
TRACK 09 AUDIO
TITLE "Time Is On Your Side"
PERFORMER "Eliminator"
INDEX 01 49:25:10
TRACK 10 AUDIO
TITLE "Crystall Ball"
PERFORMER "Eliminator"
INDEX 01 54:13:58

_________________


Top
 Profile E-mail  
 
 
PostPosted: 20 Mar 2018 
консэрваторъ
User avatar
Joined: 11 Aug 2007
Posts: 17156
Lоcаtion: Псков
Age: 45
Name: Сергей
Два поста отправил туда, там пообщаемся на тему меток... :arrov: viewtopic.php?p=328303#p328303

_________________
THRASH 'EM ALL


Top
 Profile E-mail  
 
Display posts from previous:  Sort by  
Post new topic Reply to topic  [ 22 posts ]  Go to page Previous  1, 2

All times are UTC + 3 hours


Who is online

Users browsing this forum: No registered users and 1 guest


You cannot post new topics in this forum
You cannot reply to topics in this forum
You cannot edit your posts in this forum
You cannot delete your posts in this forum
You cannot post attachments in this forum

Search for:
Яндекс.Метрика
Powered by phpBB © 2000, 2002, 2005, 2007 phpBB Group