\m/ 80's metal \m/

Информационно-аналитический форум "80 см пыли" (In Search We Trust) "У нас никто никуда не спешит"
Me For You - http://me-4u.com
It is currently 20 Apr 2019

All times are UTC + 3 hours

Spoiler
Chat - temporary registration for foreign users (please leave your application here)







Post new topic Reply to topic  [ 22 posts ]  Go to page 1, 2  Next
Author Message
 
PostPosted: 23 Oct 2008 
Пенетратор Щикатило
User avatar
Joined: 30 Jul 2007
Posts: 534
Age: 63
Name: Адольф
Eliminator - Breaking The Wheel 2008

Image

Год: 2008
Стиль: Thrash Metal
Страна: United States of America (New Brunswick, New Jersey)
Качество: mp3@VBR216
Размер: 54 Мб
Общее время звучания: 34:50

Трек-лист:

01. World Obliteration 05:55
02. Breaking the Wheel 05:59
03. Holocaust War Metal 04:21
04. The Punisher 03:51
05. Disgust 01:02
06. Service Your Leader 05:05
07. Prescription for Extinction... Time Enough at Last 08:41

Состав:

Warchild - Vocals, Guitar (Horrifier, Mutiny)
Samus - Drums (Norwegian Birthday Cake, Mutiny (US), Suspyre, Abysmal Gates, Dark Empire (US), Rising Phoenix, Abigail Williams)


Скачать
http://depositfiles.com/files/60p9d906u


источник
http://musicmetal.net

_________________
Чем больше я узнаю людей, тем больше я люблю собак. (с) Фюрер
Совесть - жидовская выдумка. Что-то вроде обрезания. (с) Фюрер
... Не дружи с теми, что тебе не равен и не бойся исправлять свои ошибки. (с) Конфуций


Top
 Profile  
 
 
PostPosted: 23 Oct 2008 
труъ антисионист
User avatar
Joined: 01 Aug 2007
Posts: 4541
Lоcаtion: Откуда и большинство из нас
Age: 38
Name: Дядя Вова
Весьма не плохой, агрессивный Трах метал, олд скул из всех щелей лезет :true:

_________________
Image
Image


Top
 Profile  
 
 
PostPosted: 24 Oct 2008 
Пенетратор Щикатило
User avatar
Joined: 30 Jul 2007
Posts: 534
Age: 63
Name: Адольф
ольдскуль :dash: я люблю более простой трах металл

_________________
Чем больше я узнаю людей, тем больше я люблю собак. (с) Фюрер
Совесть - жидовская выдумка. Что-то вроде обрезания. (с) Фюрер
... Не дружи с теми, что тебе не равен и не бойся исправлять свои ошибки. (с) Конфуций


Top
 Profile  
 
 
PostPosted: 24 Oct 2008 
Thrasher
User avatar
Joined: 07 Oct 2007
Posts: 2760
Lоcаtion: Russia, Moscow
Age: 35
Name: Drunk & Evil
А мне чото непокатило...люблю более весёлую музычку... :fingal:

_________________
ВОДКА, БАБЫ И БЛЮЗ / 40° till death... :bodun:
One time we saw some hookers, but when we got closer, we realised it was Mötley Crüe. ©


Top
 Profile  
 
 
PostPosted: 24 Oct 2008 
Хиппей (support team)
User avatar
Joined: 30 Jul 2007
Posts: 111727
Lоcаtion: Киев (Kyiv, UA)
Age: 45
Name: Andrey
Пока не слушал и не качал =(
Меня порвала молодая группа Evil Army (америкэн кроссовер) :shok:
Но почему-то на форуме темку с ней не нашёл :fingal:


Top
 Profile E-mail  
 
 
PostPosted: 24 Oct 2008 
Пенетратор Щикатило
User avatar
Joined: 30 Jul 2007
Posts: 534
Age: 63
Name: Адольф
Scatterbrain wrote:
Но почему-то на форуме темку с ней не нашёл

а самому создать в условиях глобального экономического кризиса лень )))

_________________
Чем больше я узнаю людей, тем больше я люблю собак. (с) Фюрер
Совесть - жидовская выдумка. Что-то вроде обрезания. (с) Фюрер
... Не дружи с теми, что тебе не равен и не бойся исправлять свои ошибки. (с) Конфуций


Top
 Profile  
 
 
PostPosted: 24 Oct 2008 
Thrasher
User avatar
Joined: 07 Oct 2007
Posts: 2760
Lоcаtion: Russia, Moscow
Age: 35
Name: Drunk & Evil
Scatterbrain wrote:

Меня порвала молодая группа Evil Army (америкэн кроссовер) :shok:


Велкам ин риал тайм :crazy:

_________________
ВОДКА, БАБЫ И БЛЮЗ / 40° till death... :bodun:
One time we saw some hookers, but when we got closer, we realised it was Mötley Crüe. ©


Top
 Profile  
 
 
PostPosted: 24 Oct 2008 
Хиппей (support team)
User avatar
Joined: 30 Jul 2007
Posts: 111727
Lоcаtion: Киев (Kyiv, UA)
Age: 45
Name: Andrey
CRUGER wrote:
а самому создать в условиях глобального экономического кризиса лень )))

Не, смысла не вижу. Альбомы этой группы на каждом углу есть :pardon:


Top
 Profile E-mail  
 
 
PostPosted: 25 Oct 2008 
Пенетратор Щикатило
User avatar
Joined: 30 Jul 2007
Posts: 534
Age: 63
Name: Адольф
Scatterbrain wrote:
льбомы этой группы на каждом углу есть

т.е. даже проститутки местные им приторговывают? ))))))

_________________
Чем больше я узнаю людей, тем больше я люблю собак. (с) Фюрер
Совесть - жидовская выдумка. Что-то вроде обрезания. (с) Фюрер
... Не дружи с теми, что тебе не равен и не бойся исправлять свои ошибки. (с) Конфуций


Top
 Profile  
 
 
PostPosted: 25 Oct 2008 
Работнечег
User avatar
Joined: 28 Aug 2007
Posts: 5804
Lоcаtion: г. Москва
Age: 30
Name: Дима
Scatterbrain wrote:
Пока не слушал и не качал =(
Меня порвала молодая группа Evil Army (америкэн кроссовер)

Угу, офигенная группа, меня тоже попёрло нехило!


Top
 Profile E-mail  
 
 
PostPosted: 25 Oct 2008 
Хиппей (support team)
User avatar
Joined: 30 Jul 2007
Posts: 111727
Lоcаtion: Киев (Kyiv, UA)
Age: 45
Name: Andrey
CRUGER wrote:
т.е. даже проститутки местные им приторговывают? ))))))

Они за него еще и плотють пользователям :crazy:


Top
 Profile E-mail  
 
 
PostPosted: 22 Feb 2016 
Персональный статус
User avatar
Joined: 27 Sep 2010
Posts: 333
Lоcаtion: Нижний Новгород
Age: 42
Name: Михаил
Eliminator 2008 Breaking The Wheel [USA] (Thrash)

Image

World Obliteration 5:55
Breaking The Wheel 5:59
Holocaust War Metal 4:21
The Punisher 3:51
Disgust 1:02
Service Your Leader 5:05
Prescription For Extinction...Time Enough At Last 8:41

https://www.discogs.com/Eliminator-Brea ... ter/310785

Привет, Друзья.
Очень хочется "лося" вот этого :oops:
Очень давно хочется :fingal:
И нигде не могу нарыть :cry:

Может есть у кого? Поделитесь, плиз :thanx:

_________________
подпись...


Last edited by Ant on 25 Feb 2016, edited 3 times in total.

Top
 Profile  
 
 
PostPosted: 22 Feb 2016 
А может смените мне статус?..
User avatar
Joined: 02 Feb 2009
Posts: 999
Lоcаtion: из Тулы
Age: 44
Name: Максим
Есть пласт

_________________
КМА


Top
 Profile  
 
 
PostPosted: 23 Feb 2016 
Хиппей (support team)
User avatar
Joined: 30 Jul 2007
Posts: 111727
Lоcаtion: Киев (Kyiv, UA)
Age: 45
Name: Andrey
Ant wrote:
Eliminator "Breaking The Wheel" 2008

Михаил, настоятельная рекомендация оформить, хоть и пост-фактум, запрос по правилам :arrow: viewforum.php?f=205 :thanx:

_________________


Top
 Profile E-mail  
 
 
PostPosted: 23 Feb 2016 
Генеральный thrasher
User avatar
Joined: 03 Oct 2008
Posts: 3695
Lоcаtion: Ханты-Мансийский АО
Age: 44
Name: Сергей
Ну,это совсем не редкость!Надо было просто поискать.Данный лось спокойно проживает у Оксаны на форуме.


Top
 Profile  
 
 
PostPosted: 23 Feb 2016 
Персональный статус
User avatar
Joined: 27 Sep 2010
Posts: 333
Lоcаtion: Нижний Новгород
Age: 42
Name: Михаил
overkiller wrote:
Есть пласт

Тоже хочу :cry:
Scatterbrain wrote:
Михаил, настоятельная рекомендация оформить, хоть и пост-фактум, запрос по правилам

Подправил. Теперь правильно ? :pardon:
thorbeorn wrote:
Ну,это совсем не редкость!Надо было просто поискать.Данный лось спокойно проживает у Оксаны на форуме.

А дайте ссылку, плиз, ...я ж гуглом искал, а он жмот, ничего не предлагает :umnik:

_________________
подпись...


Top
 Profile  
 
 
PostPosted: 23 Feb 2016 
Генеральный thrasher
User avatar
Joined: 03 Oct 2008
Posts: 3695
Lоcаtion: Ханты-Мансийский АО
Age: 44
Name: Сергей
Вот ссылка на рип - https://yadi.sk/d/rNkwxAKrCLyNN

"Cue"
REM GENRE "Thrash Metal"
REM DATE 2008
REM DISCID 61082D07
REM COMMENT "ExactAudioCopy v0.99pb4"
PERFORMER "Eliminator"
TITLE "Breaking The Wheel"
FILE "Eliminator - Breaking The Wheel.flac" WAVE
TRACK 01 AUDIO
TITLE "01 - World Obliteration"
PERFORMER "Eliminator"
FLAGS DCP
INDEX 01 00:00:00
TRACK 02 AUDIO
TITLE "02 - Breaking The Wheel"
PERFORMER "Eliminator"
FLAGS DCP
INDEX 00 05:52:57
INDEX 01 05:54:57
TRACK 03 AUDIO
TITLE "03 - Holocaust War Metal"
PERFORMER "Eliminator"
FLAGS DCP
INDEX 00 11:51:53
INDEX 01 11:53:53
TRACK 04 AUDIO
TITLE "04 - The Punisher"
PERFORMER "Eliminator"
FLAGS DCP
INDEX 00 16:12:57
INDEX 01 16:14:57
TRACK 05 AUDIO
TITLE "05 - Disgust"
PERFORMER "Eliminator"
FLAGS DCP
INDEX 00 20:03:57
INDEX 01 20:05:57
TRACK 06 AUDIO
TITLE "06 - Service Your Leader"
PERFORMER "Eliminator"
FLAGS DCP
INDEX 00 21:05:56
INDEX 01 21:07:56
TRACK 07 AUDIO
TITLE "07 - Prescription for Extinction...Time Enough at Last"
PERFORMER "Eliminator"
FLAGS DCP
INDEX 00 26:11:01
INDEX 01 26:13:01

"Log"
Exact Audio Copy V0.99 prebeta 4 from 23. January 2008

Отчёт EAC об извлечении, выполненном 25. октября 2009, 10:56

Eliminator / Breaking The Wheel

Дисковод: Optiarc DVD RW AD-7191S Adapter: 3 ID: 0

Режим чтения : Достоверность
Использование точного потока : Да
Отключение кэша аудио : Да
Использование указателей C2 : Нет

Коррекция смещения при чтении : 6
Способность читать области Lead-in и Lead-out : Нет
Заполнение пропущенных сэмплов тишиной : Да
Удаление блоков с тишиной в начале и конце : Нет
При вычислениях CRC использовались нулевые сэмплы : Да
Интерфейс : Встроенный Win32-интерфейс для Win NT/2000

Выходной формат : Пользовательский кодировщик
Выбранный битрейт : 768 kBit/s
Качество : Высокий
Добавление ID3-тэга : Нет
Утилита сжатия : E:\Programs\Exact Audio Copy\FLAC\FLAC.EXE
Дополнительные параметры : -6 -V -T "ARTIST=%a" -T "TITLE=%t" -T "ALBUM=%g" -T "DATE=%y" -T "TRACKNUMBER=%n" -T "GENRE=%m" -T "COMMENT=%e" %s -o %d


TOC извлечённого CD

Трек | Старт | Длительность | Начальный сектор | Конечный сектор
---------------------------------------------------------------------
1 | 0:00.00 | 5:54.57 | 0 | 26606
2 | 5:54.57 | 5:58.71 | 26607 | 53527
3 | 11:53.53 | 4:21.04 | 53528 | 73106
4 | 16:14.57 | 3:51.00 | 73107 | 90431
5 | 20:05.57 | 1:01.74 | 90432 | 95080
6 | 21:07.56 | 5:05.20 | 95081 | 117975
7 | 26:13.01 | 8:40.44 | 117976 | 157019


Характеристики диапазона извлечения и сообщения об ошибках

Выбранный диапазон

Имя файла C:\Documents and Settings\maddriver\Рабочий стол\lossless\Eliminator - Breaking The Wheel.wav

Пиковый уровень 100.0 %
Качество диапазона 100.0 %
CRC теста 6D66C562
CRC копии 6D66C562
Копирование... OK

Ошибок не произошло


AccurateRip: сводка

Трек 1 точное извлечение (доверие 1) [EE2E1F5A]
Трек 2 точное извлечение (доверие 1) [DDDA124A]
Трек 3 точное извлечение (доверие 1) [5887EC16]
Трек 4 точное извлечение (доверие 1) [5AC241DB]
Трек 5 точное извлечение (доверие 1) [430F6D12]
Трек 6 точное извлечение (доверие 1) [8351ADB7]
Трек 7 точное извлечение (доверие 1) [EA64CD6B]

Все треки извлечены точно

Конец отчёта


Top
 Profile  
 
 
PostPosted: 23 Feb 2016 
Персональный статус
User avatar
Joined: 27 Sep 2010
Posts: 333
Lоcаtion: Нижний Новгород
Age: 42
Name: Михаил
:thanx:

_________________
подпись...


Top
 Profile  
 
 
PostPosted: 19 Mar 2018 
Хиппей (support team)
User avatar
Joined: 30 Jul 2007
Posts: 111727
Lоcаtion: Киев (Kyiv, UA)
Age: 45
Name: Andrey
Собственно, на прошлой неделе качнул и другой альбом данной группы (или проекта) и немного припух от красоты музыки :meloman:

Eliminator - 2010 - The One They Were Waiting For [flac]

Image

    1. Atish - 18:00
    2. Calm Before the Storm - 00:36
    3. Me and the Devil Blues - 08:08
    4. The Man in the Picture... To Become What One Is - 05:58
    5. Answers Left Behind - 00:51
    6. Honey Sacrifice - 19:37
    7. He Who Laughs Best Today... - 00:35
    8. Goodness Is Dead... Enter the Black Hole, Fucker! - 07:46
    9. R.I.P. - 02:59

    TPT: 01:04:30

mirror: Giga l Drop l Narod l M-Cloud


Стиль описать довольно сложно даже для меня, но приблэкованный трэш с приколами всякими наличесвует.
Причём авторы удивить явно хотели таким вот разнообразием музыки. но.. вышло, что почти покорили - забираю альбом в личные топы :lob: :lob: :lob:

8+/10

log
Exact Audio Copy V1.0 beta 1 from 15. November 2010

EAC extraction logfile from 25. March 2011, 19:20

Eliminator / The One They Were Waiting For

Used drive : TSSTcorp - CDDVDW TS-L633A AS00 Adapter: 2 ID: 1

Read mode : Secure
Utilize accurate stream : Yes
Defeat audio cache : Yes
Make use of C2 pointers : No

Read offset correction : 6
Overread into Lead-In and Lead-Out : No
Fill up missing offset samples with silence : Yes
Delete leading and trailing silent blocks : No
Null samples used in CRC calculations : Yes
Used interface : Native Win32 interface for Win NT & 2000

Used output format : Internal WAV Routines
Sample format : 44.100 Hz; 16 Bit; Stereo


TOC of the extracted CD

Track | Start | Length | Start sector | End sector
---------------------------------------------------------
1 | 0:00.00 | 18:00.47 | 0 | 81046
2 | 18:00.47 | 0:36.57 | 81047 | 83803
3 | 18:37.29 | 8:08.38 | 83804 | 120441
4 | 26:45.67 | 5:58.54 | 120442 | 147345
5 | 32:44.46 | 0:51.05 | 147346 | 151175
6 | 33:35.51 | 19:37.46 | 151176 | 239496
7 | 53:13.22 | 0:35.44 | 239497 | 242165
8 | 53:48.66 | 7:46.26 | 242166 | 277141
9 | 61:35.17 | 2:59.10 | 277142 | 290576


Range status and errors

Selected range

Filename D:\LOSSLESS\UPLOAD\Eliminator 2010 - The One They Were Waiting For\Eliminator - The One They Were Waiting For.wav

Peak level 100.0 %
Extraction speed 0.7 X
Range quality 100.0 %
Test CRC 0EACBC7F
Copy CRC 0EACBC7F
Copy OK

No errors occurred


AccurateRip summary

Track 1 not present in database
Track 2 not present in database
Track 3 not present in database
Track 4 not present in database
Track 5 not present in database
Track 6 not present in database
Track 7 not present in database
Track 8 not present in database
Track 9 not present in database

None of the tracks are present in the AccurateRip database

End of status report

cue
REM GENRE "Thrash Metal"
REM DATE 2010
REM DISCID 7A0F2209
REM COMMENT "ExactAudioCopy v1.0b1"
PERFORMER "Eliminator"
TITLE "The One They Were Waiting For "
FILE "Eliminator - The One They Were Waiting For.wav" WAVE
TRACK 01 AUDIO
TITLE "Atish"
PERFORMER "Eliminator"
INDEX 01 00:00:00
TRACK 02 AUDIO
TITLE "Calm Before The Storm"
PERFORMER "Eliminator"
INDEX 01 18:00:47
TRACK 03 AUDIO
TITLE "Me And The Devil Blues"
PERFORMER "Eliminator"
INDEX 01 18:37:29
TRACK 04 AUDIO
TITLE "The Man In The Picture ... Tj Become What One Is"
PERFORMER "Eliminator"
INDEX 01 26:45:67
TRACK 05 AUDIO
TITLE "Answers Left Behind"
PERFORMER "Eliminator"
INDEX 01 32:44:46
TRACK 06 AUDIO
TITLE "Honey Sacrifice"
PERFORMER "Eliminator"
INDEX 01 33:35:51
TRACK 07 AUDIO
TITLE "He Who Laughs Best Today"
PERFORMER "Eliminator"
INDEX 01 53:13:22
TRACK 08 AUDIO
TITLE "Goodness Is Dead ... Enter The Black Hole, Fucker!"
PERFORMER "Eliminator"
INDEX 01 53:48:66
TRACK 09 AUDIO
TITLE "R.I.P."
PERFORMER "Eliminator"
INDEX 01 61:35:17

_________________


Top
 Profile E-mail  
 
 
PostPosted: 19 Mar 2018 
Хиппей (support team)
User avatar
Joined: 30 Jul 2007
Posts: 111727
Lоcаtion: Киев (Kyiv, UA)
Age: 45
Name: Andrey
Объединил две темы в одну, так как оке-кто не читает вообще правил :fingal:
Ну и переношу в "Бухту".

_________________


Top
 Profile E-mail  
 
Display posts from previous:  Sort by  
Post new topic Reply to topic  [ 22 posts ]  Go to page 1, 2  Next

All times are UTC + 3 hours


Who is online

Users browsing this forum: No registered users and 1 guest


You cannot post new topics in this forum
You cannot reply to topics in this forum
You cannot edit your posts in this forum
You cannot delete your posts in this forum
You cannot post attachments in this forum

Search for:
Яндекс.Метрика
Powered by phpBB © 2000, 2002, 2005, 2007 phpBB Group