\m/ 80's metal \m/

Информационно-аналитический форум "80 см пыли" (In Search We Trust) "У нас никто никуда не спешит"
Me For You - http://me-4u.com
It is currently 21 Apr 2019

All times are UTC + 3 hours

Spoiler
Chat - temporary registration for foreign users (please leave your application here)







Post new topic Reply to topic  [ 44 posts ]  Go to page Previous  1, 2, 3
Author Message
 
PostPosted: 08 Jan 2016 
5-speed satisfactor
User avatar
Joined: 16 Feb 2009
Posts: 3723
Lоcаtion: New York, USA
Age: 41
Name: Leonid
Image Image

    1. Oblivion (instrumental) - 00:34
    2. Violence & Force - 04:04
    3. Scream in the Night - 04:13
    4. Pounding Metal - 04:33
    5. Evil Sinner - 04:58
    6. Destructor - 04:19
    7. Swords of Darkness - 03:58
    8. Delivering to the Master - 06:06
    9. Saxons of the Fire - 03:27
    10. War Is Hell - 06:18

    TPT: 42:30



На оформление нет времени. Сорри.

Рип из своей коллекции.

http://we.tl/0Pt8MB6fW2

Image Image Image

log
Exact Audio Copy V0.99 prebeta 5 from 4. May 2009

EAC extraction logfile from 6. January 2016, 23:54

Exciter / Violence & Force

Used drive : HL-DT-STDVDRAM GSA-4083N Adapter: 1 ID: 0

Read mode : Secure
Utilize accurate stream : Yes
Defeat audio cache : Yes
Make use of C2 pointers : No

Read offset correction : 667
Overread into Lead-In and Lead-Out : Yes
Fill up missing offset samples with silence : Yes
Delete leading and trailing silent blocks : No
Null samples used in CRC calculations : No
Used interface : Native Win32 interface for Win NT & 2000

Used output format : Internal WAV Routines
Sample format : 44.100 Hz; 16 Bit; Stereo


TOC of the extracted CD

Track | Start | Length | Start sector | End sector
---------------------------------------------------------
1 | 0:00.33 | 0:34.20 | 33 | 2602
2 | 0:34.53 | 4:03.67 | 2603 | 20894
3 | 4:38.45 | 4:12.35 | 20895 | 39829
4 | 8:51.05 | 4:33.30 | 39830 | 60334
5 | 13:24.35 | 5:09.63 | 60335 | 83572
6 | 18:34.23 | 4:19.15 | 83573 | 103012
7 | 22:53.38 | 3:57.42 | 103013 | 120829
8 | 26:51.05 | 6:06.40 | 120830 | 148319
9 | 32:57.45 | 3:27.23 | 148320 | 163867
10 | 36:24.68 | 6:17.27 | 163868 | 192169


Range status and errors

Selected range

Filename D:\temp\flacs\Exciter\Exciter - Violence & Force.wav

Peak level 100.0 %
Range quality 100.0 %
Test CRC D10DACB0
Copy CRC D10DACB0
Copy OK

No errors occurred


AccurateRip summary

Track 1 cannot be verified as accurate (confidence 2) [D39BE823], AccurateRip returned [B71A1968]
Track 2 cannot be verified as accurate (confidence 2) [4AF18AFF], AccurateRip returned [DAF100F8]
Track 3 cannot be verified as accurate (confidence 2) [A0FB9084], AccurateRip returned [00C58D67]
Track 4 cannot be verified as accurate (confidence 2) [6D9F2907], AccurateRip returned [9E7D27E8]
Track 5 cannot be verified as accurate (confidence 2) [02E58903], AccurateRip returned [8AFFB196]
Track 6 cannot be verified as accurate (confidence 2) [781E0D4C], AccurateRip returned [8A1C96B5]
Track 7 cannot be verified as accurate (confidence 2) [461E19C2], AccurateRip returned [8BABE7BB]
Track 8 cannot be verified as accurate (confidence 2) [AD9E9F84], AccurateRip returned [8E50BADD]
Track 9 cannot be verified as accurate (confidence 2) [D1DD9EA3], AccurateRip returned [CCF0ED9A]
Track 10 cannot be verified as accurate (confidence 2) [AD92443B], AccurateRip returned [62F7ADA5]

No tracks could be verified as accurate
You may have a different pressing from the one(s) in the database

End of status report

cue
REM GENRE "Heavy Metal"
REM DATE 1984
REM DISCID 7D0A020A
REM COMMENT "ExactAudioCopy v0.99pb5"
CATALOG 0000000000000
PERFORMER "Exciter"
TITLE "Violence & Force"
FILE "Exciter - Violence & Force.wav" WAVE
TRACK 01 AUDIO
TITLE "Oblivion"
PERFORMER "Exciter"
INDEX 00 00:00:00
INDEX 01 00:00:33
TRACK 02 AUDIO
TITLE "Violence & Force"
PERFORMER "Exciter"
INDEX 01 00:34:53
TRACK 03 AUDIO
TITLE "Scream In The Night"
PERFORMER "Exciter"
INDEX 01 04:38:45
TRACK 04 AUDIO
TITLE "Pounding Metal"
PERFORMER "Exciter"
INDEX 00 08:49:30
INDEX 01 08:51:05
TRACK 05 AUDIO
TITLE "Evil Sinner"
PERFORMER "Exciter"
INDEX 00 13:24:00
INDEX 01 13:24:35
TRACK 06 AUDIO
TITLE "Destructor"
PERFORMER "Exciter"
INDEX 00 18:32:05
INDEX 01 18:34:23
TRACK 07 AUDIO
TITLE "Swords Of Darkness"
PERFORMER "Exciter"
INDEX 01 22:53:38
TRACK 08 AUDIO
TITLE "Delivering To The Master"
PERFORMER "Exciter"
INDEX 00 26:50:05
INDEX 01 26:51:05
TRACK 09 AUDIO
TITLE "Saxons Of The Fire"
PERFORMER "Exciter"
INDEX 00 32:56:43
INDEX 01 32:57:45
TRACK 10 AUDIO
TITLE "War Is Hell"
PERFORMER "Exciter"
INDEX 00 36:23:30
INDEX 01 36:24:68

_________________
Death rules! Metal to all who oppose!


Last edited by Scatterbrain on 10 Jan 2016, edited 2 times in total.
Немного подоформлено типа...


Top
 Profile  
 
 
PostPosted: 21 Dec 2016 
консэрваторъ
Joined: 11 Aug 2007
Posts: 16816
Lоcаtion: Псков
Age: 45
Name: Сергей
Лёнь, я лосей не содержу, увы... после сравнения и анализа сразу свежую лучшего по моим меркам (а они тут мало кому нравятся мои стеновые мерки :smile: )... раз я его слушал и анализировал, значит он в свободном доступе...

_________________
THRASH 'EM ALL


Top
 Profile E-mail  
 
 
PostPosted: 21 Dec 2016 
5-speed satisfactor
User avatar
Joined: 16 Feb 2009
Posts: 3723
Lоcаtion: New York, USA
Age: 41
Name: Leonid
Где взять?

_________________
Death rules! Metal to all who oppose!


Top
 Profile  
 
 
PostPosted: 22 Dec 2016 
консэрваторъ
Joined: 11 Aug 2007
Posts: 16816
Lоcаtion: Псков
Age: 45
Name: Сергей
https://rutracker.org/forum/viewtopic.php?t=814764

_________________
THRASH 'EM ALL


Top
 Profile E-mail  
 
 
PostPosted: 22 Dec 2016 
5-speed satisfactor
User avatar
Joined: 16 Feb 2009
Posts: 3723
Lоcаtion: New York, USA
Age: 41
Name: Leonid
:thanx:

_________________
Death rules! Metal to all who oppose!


Top
 Profile  
 
Display posts from previous:  Sort by  
Post new topic Reply to topic  [ 44 posts ]  Go to page Previous  1, 2, 3

All times are UTC + 3 hours


Who is online

Users browsing this forum: No registered users and 1 guest


You cannot post new topics in this forum
You cannot reply to topics in this forum
You cannot edit your posts in this forum
You cannot delete your posts in this forum
You cannot post attachments in this forum

Search for:
Яндекс.Метрика
Powered by phpBB © 2000, 2002, 2005, 2007 phpBB Group