\m/ 80's metal \m/

Информационно-аналитический форум "80 см пыли" (In Search We Trust) "У нас никто никуда не спешит"
Me For You - http://me-4u.com
It is currently 18 Apr 2019

All times are UTC + 3 hours

Spoiler
Chat - temporary registration for foreign users (please leave your application here)







Post new topic Reply to topic  [ 32 posts ]  Go to page Previous  1, 2
Author Message
 
PostPosted: 30 Sep 2018 
Хиппей (support team)
User avatar
Joined: 30 Jul 2007
Posts: 111655
Lоcаtion: Киев (Kyiv, UA)
Age: 45
Name: Andrey
В 2006 они полностью переиграли свой дебютник , там уже звук современный . На трекере есть , если не качается , могу залить .

Бррбб :(
Звук, конечно, стал лучше, но ушла вообще куда-то та аура конца 80-х, начала 90-х.
Особенно слышно всё по вокалисту, нет уже былой хрипотцы германской привычной и того запала в голосе :( :( :(

Хотя запись теперь могут послушать такие же тормоза как и я и с хорошим звуком :kro: :kro: :kro:

зы. Блин, жаль, что я сначала оригинальную версию послушал. Чо было говорил, кабы в перезаписанной начал знакомиться с творчеством группе? :scratch:

_________________


Top
 Profile E-mail  
 
 
PostPosted: 01 Oct 2018 
Хиппей (support team)
User avatar
Joined: 30 Jul 2007
Posts: 111655
Lоcаtion: Киев (Kyiv, UA)
Age: 45
Name: Andrey
Evenstorm - 2011 - The Return Of The Storm [wv]

Image Image Image

mirror: Uloz l Drop l Narod l M-Cloud

Группа очень долго не "заходила" в мои ухи, но сейчас вроде барьер преодолён и мне начинает нравиться как и сама музыка, так и привычный, вроде бы, чутка хрипловатый вокал солиста, иногда сбивающийся в концовках слов на визги а-ля Болтендаль и Удо.
В общем, вполне разнообразная современная хэви-метол музыка, но от которой не тошнит как в плане звука, так и мелодий, запоминающихся хуковых припевов и даже умеренных скоростей.
Альбом воспринимается вполне себе весело и в меру серьёзно. Я даже по лирике начал песни понимать :shok:
Ансамбль, конечно, примерно 3-го дивизиона германского хэви, но он мне начинает нравится :meloman:

Спасибо всем за знакомство с коллективом :thanx:

7/10

Image Image Image Image

log
Exact Audio Copy V0.99 prebeta 5 from 4. May 2009

EAC extraction logfile from 23. September 2011, 21:37

Evenstorm / The Return Of The Storm

Used drive : Optiarc DVD RW AD-7260S Adapter: 3 ID: 0

Read mode : Secure
Utilize accurate stream : Yes
Defeat audio cache : Yes
Make use of C2 pointers : No

Read offset correction : 48
Overread into Lead-In and Lead-Out : No
Fill up missing offset samples with silence : Yes
Delete leading and trailing silent blocks : No
Null samples used in CRC calculations : Yes
Used interface : Installed external ASPI interface

Used output format : User Defined Encoder
Selected bitrate : 1024 kBit/s
Quality : High
Add ID3 tag : No
Command line compressor : D:\Program Files\Exact Audio Copy\WavPack\wavpack.exe
Additional command line options : -hhx6 -w "Artist=%a" -w "Album=%g" -w "Year=%y" -w "Genre=%m" -w "Cuesheet=@*.cue" %s %d


TOC of the extracted CD

Track | Start | Length | Start sector | End sector
---------------------------------------------------------
1 | 0:00.02 | 8:03.42 | 2 | 36268
2 | 8:03.44 | 4:39.73 | 36269 | 57266
3 | 12:43.42 | 5:14.58 | 57267 | 80874
4 | 17:58.25 | 3:54.74 | 80875 | 98498
5 | 21:53.24 | 4:59.74 | 98499 | 120997
6 | 26:53.23 | 5:24.07 | 120998 | 145304
7 | 32:17.30 | 4:20.46 | 145305 | 164850
8 | 36:38.01 | 3:18.41 | 164851 | 179741
9 | 39:56.42 | 6:03.53 | 179742 | 207019
10 | 46:00.20 | 5:17.70 | 207020 | 230864


Range status and errors

Selected range

Filename H:\EVENSTORM [2011] [CD] The Return Of The Storm [EAC-WV]\Evenstorm - The Return Of The Storm.wav

Peak level 99.8 %
Range quality 100.0 %
Test CRC 9130B39F
Copy CRC 9130B39F
Copy OK

No errors occurred


AccurateRip summary

Track 1 not present in database
Track 2 not present in database
Track 3 not present in database
Track 4 not present in database
Track 5 not present in database
Track 6 not present in database
Track 7 not present in database
Track 8 not present in database
Track 9 not present in database
Track 10 not present in database

None of the tracks are present in the AccurateRip database

End of status report

cue
REM GENRE "Heavy Metal"
REM DATE 2011
REM DISCID 860C060A
REM COMMENT "ExactAudioCopy v0.99pb5"
PERFORMER "Evenstorm"
TITLE "The Return Of The Storm"
FILE "Evenstorm - The Return Of The Storm.wv" WAVE
TRACK 01 AUDIO
TITLE "Return Of The Storm"
PERFORMER "Evenstorm"
INDEX 00 00:00:00
INDEX 01 00:00:02
TRACK 02 AUDIO
TITLE "Determined To Rock"
PERFORMER "Evenstorm"
INDEX 00 08:02:31
INDEX 01 08:03:44
TRACK 03 AUDIO
TITLE "Marushka"
PERFORMER "Evenstorm"
INDEX 00 12:42:40
INDEX 01 12:43:42
TRACK 04 AUDIO
TITLE "Position 69"
PERFORMER "Evenstorm"
INDEX 00 17:56:59
INDEX 01 17:58:25
TRACK 05 AUDIO
TITLE "Speed Ecstacy"
PERFORMER "Evenstorm"
INDEX 00 21:52:18
INDEX 01 21:53:24
TRACK 06 AUDIO
TITLE "Forsaken"
PERFORMER "Evenstorm"
INDEX 00 26:52:00
INDEX 01 26:53:23
TRACK 07 AUDIO
TITLE "Hot And Wild"
PERFORMER "Evenstorm"
INDEX 00 32:15:66
INDEX 01 32:17:30
TRACK 08 AUDIO
TITLE "Pleasure Ride"
PERFORMER "Evenstorm"
INDEX 00 36:37:71
INDEX 01 36:38:01
TRACK 09 AUDIO
TITLE "Night Of The Widow"
PERFORMER "Evenstorm"
INDEX 00 39:55:73
INDEX 01 39:56:42
TRACK 10 AUDIO
TITLE "Message"
PERFORMER "Evenstorm"
INDEX 00 45:59:03
INDEX 01 46:00:20

_________________


Top
 Profile E-mail  
 
 
PostPosted: 01 Oct 2018 
Хиппей (support team)
User avatar
Joined: 30 Jul 2007
Posts: 111655
Lоcаtion: Киев (Kyiv, UA)
Age: 45
Name: Andrey


Красиво сыграли сами себя под фанеру :meloman:

_________________


Top
 Profile E-mail  
 
 
PostPosted: 01 Oct 2018 
Рарник и трушник
User avatar
Joined: 25 Dec 2009
Posts: 8591
Lоcаtion: Москва
Age: 53
Name: Виталий
:true: :true: :true:


Top
 Profile  
 
 
PostPosted: 02 Oct 2018 
Я набрал 1000 сообщений!
Joined: 24 Oct 2009
Posts: 2195
Lоcаtion: Оренбург
Age: 55
Name: Юра
:thanx:

_________________
:dash: I am happy!


Top
 Profile E-mail  
 
 
PostPosted: 04 Oct 2018 
Хиппей (support team)
User avatar
Joined: 30 Jul 2007
Posts: 111655
Lоcаtion: Киев (Kyiv, UA)
Age: 45
Name: Andrey
sin2 wrote:
Evenstorm - 2015 - Night in Gale [320]

Этот альбом пока оказался самым неинтересным у группы :pardon:
Хитов мало. Слишком много самоповторов и плагиата. Почти ничего, кроме вокала, нет своего, оригинального.

5/10

mirror: Uloz l Drop l Narod l M-Cloud

_________________


Top
 Profile E-mail  
 
 
PostPosted: 04 Oct 2018 
Хиппей (support team)
User avatar
Joined: 30 Jul 2007
Posts: 111655
Lоcаtion: Киев (Kyiv, UA)
Age: 45
Name: Andrey
Ну и итоговый вывод по группе не изменился.
Средненький такой коллектив, третьего эшелона.
Не успели влезть на поезд активного германского хэви 80-х, чуть покатались на подножке 90-х и дальше сразу превратились в одну из тысяч безымянных команд :(

О культе ни слова, ибо его нет и вряд ли был.

_________________


Top
 Profile E-mail  
 
 
PostPosted: 09 Oct 2018 
Хиппей (support team)
User avatar
Joined: 30 Jul 2007
Posts: 111655
Lоcаtion: Киев (Kyiv, UA)
Age: 45
Name: Andrey
Да припоздал.Альбом 2006 года изумителен,а вот 2011 уже неоднозначный-есть проходные песни и добавилось ненужное подражание группе Dio.

:shok: :shok: :shok:
В каком месте там подражание группе Dio то проявляется? :shok: :shok: :shok:

_________________


Top
 Profile E-mail  
 
 
PostPosted: 09 Oct 2018 
Хиппей (support team)
User avatar
Joined: 30 Jul 2007
Posts: 111655
Lоcаtion: Киев (Kyiv, UA)
Age: 45
Name: Andrey
Объединил обе темы по одной группе.

_________________


Top
 Profile E-mail  
 
 
PostPosted: 09 Oct 2018 
Хиппей (support team)
User avatar
Joined: 30 Jul 2007
Posts: 111655
Lоcаtion: Киев (Kyiv, UA)
Age: 45
Name: Andrey
Evenstorm - 2006 - Metal Anthology [flac]

Image

Image

Image

mirror: Uloz l Drop l Narod l M-Cloud

log
Exact Audio Copy V0.99 prebeta 5 from 4. May 2009

Отчёт EAC об извлечении, выполненном 4. октября 2011, 23:14

Evenstorm / Metal Anthology

Дисковод: HL-DT-STDVD-RAM GH10L Adapter: 0 ID: 1

Режим чтения : Достоверность
Использование точного потока : Да
Отключение кэша аудио : Да
Использование указателей C2 : Нет

Коррекция смещения при чтении : 667
Способность читать области Lead-in и Lead-out : Нет
Заполнение пропущенных сэмплов тишиной : Да
Удаление блоков с тишиной в начале и конце : Нет
При вычислениях CRC использовались нулевые сэмплы : Да
Интерфейс : Встроенный Win32-интерфейс для Win NT/2000

Выходной формат : Пользовательский кодировщик
Выбранный битрейт : 768 kBit/s
Качество : Высокий
Добавление ID3-тэга : Нет
Утилита сжатия : C:\Program Files\Exact Audio Copy\FLAC\FLAC.EXE
Дополнительные параметры : -6 -V -T "ARTIST=%a" -T "TITLE=%t" -T "ALBUM=%g" -T "DATE=%y" -T "TRACKNUMBER=%n" -T "GENRE=%m" -T "COMMENT=%e" %s -o %d


TOC извлечённого CD

Трек | Старт | Длительность | Начальный сектор | Конечный сектор
---------------------------------------------------------------------
1 | 0:00.00 | 7:36.05 | 0 | 34204
2 | 7:36.05 | 5:56.37 | 34205 | 60941
3 | 13:32.42 | 4:42.35 | 60942 | 82126
4 | 18:15.02 | 5:16.57 | 82127 | 105883
5 | 23:31.59 | 4:32.71 | 105884 | 126354
6 | 28:04.55 | 5:17.05 | 126355 | 150134
7 | 33:21.60 | 4:11.53 | 150135 | 169012
8 | 37:33.38 | 4:49.53 | 169013 | 190740
9 | 42:23.16 | 5:22.21 | 190741 | 214911
10 | 47:45.37 | 4:02.72 | 214912 | 233133


Характеристики диапазона извлечения и сообщения об ошибках

Выбранный диапазон

Имя файла E:\Metal\Evenstorm - Metal Anthology.wav

Пиковый уровень 96.7 %
Качество диапазона 99.9 %
CRC копии 33A14765
Копирование... OK

Ошибок не произошло

Конец отчёта

cue
REM GENRE "Heavy Metal"
REM DATE 2006
REM DISCID 890C240A
REM COMMENT "ExactAudioCopy v0.99pb5"
PERFORMER "Evenstorm"
TITLE "Metal Anthology"
FILE "Evenstorm - Metal Anthology.flac" WAVE
TRACK 01 AUDIO
TITLE "Evenstorm"
PERFORMER "Evenstorm"
FLAGS DCP
INDEX 01 00:00:00
TRACK 02 AUDIO
TITLE "M.E.T.A.L"
PERFORMER "Evenstorm"
FLAGS DCP
INDEX 01 07:36:05
TRACK 03 AUDIO
TITLE "Break Out"
PERFORMER "Evenstorm"
FLAGS DCP
INDEX 01 13:32:42
TRACK 04 AUDIO
TITLE "Cheyenne"
PERFORMER "Evenstorm"
FLAGS DCP
INDEX 01 18:15:02
TRACK 05 AUDIO
TITLE "Flight Into Death"
PERFORMER "Evenstorm"
FLAGS DCP
INDEX 01 23:31:59
TRACK 06 AUDIO
TITLE "The Night"
PERFORMER "Evenstorm"
FLAGS DCP
INDEX 01 28:04:55
TRACK 07 AUDIO
TITLE "Black Gold"
PERFORMER "Evenstorm"
FLAGS DCP
INDEX 01 33:21:60
TRACK 08 AUDIO
TITLE "Salvation"
PERFORMER "Evenstorm"
FLAGS DCP
INDEX 01 37:33:38
TRACK 09 AUDIO
TITLE "Final Procession"
PERFORMER "Evenstorm"
FLAGS DCP
INDEX 01 42:23:16
TRACK 10 AUDIO
TITLE "Strong"
PERFORMER "Evenstorm"
FLAGS DCP
INDEX 01 47:45:37

_________________


Top
 Profile E-mail  
 
 
PostPosted: 09 Oct 2018 
Рарник и трушник
User avatar
Joined: 25 Dec 2009
Posts: 8591
Lоcаtion: Москва
Age: 53
Name: Виталий
:thanx:


Top
 Profile  
 
 
PostPosted: 17 Feb 2019 
Power Metal Maniac
User avatar
Joined: 09 Aug 2008
Posts: 6670
Lоcаtion: Москва
Age: 41
Name: Егор
:thanx:

_________________
Long Live Metal!


Top
 Profile  
 
Display posts from previous:  Sort by  
Post new topic Reply to topic  [ 32 posts ]  Go to page Previous  1, 2

All times are UTC + 3 hours


Who is online

Users browsing this forum: No registered users and 1 guest


You cannot post new topics in this forum
You cannot reply to topics in this forum
You cannot edit your posts in this forum
You cannot delete your posts in this forum
You cannot post attachments in this forum

Search for:
Яндекс.Метрика
Powered by phpBB © 2000, 2002, 2005, 2007 phpBB Group