\m/ 80's metal \m/

Информационно-аналитический форум "80 см пыли" (In Search We Trust) "У нас никто никуда не спешит"
Железнодорожная биржа - RailAgent
It is currently 22 May 2018

All times are UTC + 3 hours

Spoiler
Chat - temporary registration for foreign users (please leave your application here)







Post new topic Reply to topic  [ 2 posts ] 
Author Message
 
PostPosted: 24 Jul 2015 
Генеральный thrasher
User avatar
Joined: 03 Oct 2008
Posts: 3394
Lоcаtion: Ханты-Мансийский АО
Age: 43
Name: Сергей
Image

Year:1992
Style:Thrash Metal/Hardcore
Country:Germany
Archive:Flac+Cue+Log+Scans
Size:370Mb
Source:my CD
Label:We Bite Records

Line-Up:
Chris Zenk - vocals
Klaus Nowakowski - drums
Stefan Römhild - guitars,vocals (backing)
Michael Hankel - guitars,vocals (backing)
Rainer Wischnewski - bass

Tracklist:
01. Erosion III 01:39
02. Erosive Live 03:38
03. Revenge 02:04
04. Body And Soul 01:45
05. Reality 03:28
06. Power Within 02:52
07. Enemy 03:19
08. M.L.H. 04:41
09. Germany 2003 02:50
10. 70th Floor 02:47
11. Love 03:21
12. Lonely 03:56
13. Dead Europe 13:20

"Cue"
REM GENRE "Thrash Metal/Crossover"
REM DATE 1992
REM DISCID 920BB80D
REM COMMENT "ExactAudioCopy v0.99pb5"
PERFORMER "Erosion"
TITLE "III"
FILE "Erosion - III.flac" WAVE
TRACK 01 AUDIO
TITLE "Erosion III"
PERFORMER "Erosion"
INDEX 01 00:00:00
TRACK 02 AUDIO
TITLE "Erosive Life"
PERFORMER "Erosion"
INDEX 01 01:39:62
TRACK 03 AUDIO
TITLE "Revenge"
PERFORMER "Erosion"
INDEX 01 05:18:00
TRACK 04 AUDIO
TITLE "Body and soul"
PERFORMER "Erosion"
INDEX 00 07:22:37
INDEX 01 07:23:37
TRACK 05 AUDIO
TITLE "Reality"
PERFORMER "Erosion"
INDEX 00 09:08:37
INDEX 01 09:10:00
TRACK 06 AUDIO
TITLE "Power within"
PERFORMER "Erosion"
INDEX 00 12:38:37
INDEX 01 12:39:62
TRACK 07 AUDIO
TITLE "Enemy"
PERFORMER "Erosion"
INDEX 00 15:31:62
INDEX 01 15:32:62
TRACK 08 AUDIO
TITLE "M.L.H."
PERFORMER "Erosion"
INDEX 00 18:52:00
INDEX 01 18:52:62
TRACK 09 AUDIO
TITLE "Germany 2003"
PERFORMER "Erosion"
INDEX 00 23:34:00
INDEX 01 23:35:62
TRACK 10 AUDIO
TITLE "70th floor"
PERFORMER "Erosion"
INDEX 00 26:26:25
INDEX 01 26:28:37
TRACK 11 AUDIO
TITLE "Love"
PERFORMER "Erosion"
INDEX 00 29:15:50
INDEX 01 29:17:25
TRACK 12 AUDIO
TITLE "Lonely"
PERFORMER "Erosion"
INDEX 00 32:38:25
INDEX 01 32:40:25
TRACK 13 AUDIO
TITLE "Dead Europe"
PERFORMER "Erosion"
INDEX 00 36:37:12
INDEX 01 36:39:37

"Log"
Exact Audio Copy V0.99 prebeta 5 from 4. May 2009

Отчёт EAC об извлечении, выполненном 6. июня 2013, 9:22

Erosion / III

Дисковод: MATSHITADVD-RAM UJ8A0AS Adapter: 0 ID: 1

Режим чтения : Достоверность
Использование точного потока : Да
Отключение кэша аудио : Да
Использование указателей C2 : Нет

Коррекция смещения при чтении : 102
Способность читать области Lead-in и Lead-out : Нет
Заполнение пропущенных сэмплов тишиной : Да
Удаление блоков с тишиной в начале и конце : Нет
При вычислениях CRC использовались нулевые сэмплы : Да
Интерфейс : Встроенный Win32-интерфейс для Win NT/2000

Выходной формат : Пользовательский кодировщик
Выбранный битрейт : 1024 kBit/s
Качество : Высокий
Добавление ID3-тэга : Нет
Утилита сжатия : C:\Program Files\Exact Audio Copy\FLAC\FLAC.EXE
Дополнительные параметры : -6 -V -T "ARTIST=%a" -T "TITLE=%t" -T "ALBUM=%g" -T "DATE=%y" -T "TRACKNUMBER=%n" -T "GENRE=%m" -T "COMMENT=%e" %s -o %d


TOC извлечённого CD

Трек | Старт | Длительность | Начальный сектор | Конечный сектор
---------------------------------------------------------------------
1 | 0:00.00 | 1:39.62 | 0 | 7486
2 | 1:39.62 | 3:38.13 | 7487 | 23849
3 | 5:18.00 | 2:05.37 | 23850 | 33261
4 | 7:23.37 | 1:46.38 | 33262 | 41249
5 | 9:10.00 | 3:29.62 | 41250 | 56986
6 | 12:39.62 | 2:53.00 | 56987 | 69961
7 | 15:32.62 | 3:20.00 | 69962 | 84961
8 | 18:52.62 | 4:43.00 | 84962 | 106186
9 | 23:35.62 | 2:52.50 | 106187 | 119136
10 | 26:28.37 | 2:48.63 | 119137 | 131799
11 | 29:17.25 | 3:23.00 | 131800 | 147024
12 | 32:40.25 | 3:59.12 | 147025 | 164961
13 | 36:39.37 | 13:20.63 | 164962 | 225024


Характеристики диапазона извлечения и сообщения об ошибках

Выбранный диапазон

Имя файла C:\Users\эксперт\Music\Erosion - III.wav

Пиковый уровень 100.0 %
Качество диапазона 100.0 %
CRC копии 281593CF
Копирование... OK

Ошибок не произошло


AccurateRip: сводка

Трек 1 нет в базе данных
Трек 2 нет в базе данных
Трек 3 нет в базе данных
Трек 4 нет в базе данных
Трек 5 нет в базе данных
Трек 6 нет в базе данных
Трек 7 нет в базе данных
Трек 8 нет в базе данных
Трек 9 нет в базе данных
Трек 10 нет в базе данных
Трек 11 нет в базе данных
Трек 12 нет в базе данных
Трек 13 нет в базе данных

Ни одного трека нет в базе AccurateRip

Конец отчёта


Erosion III


Top
 Profile  
 
 
PostPosted: 24 Jul 2015 
\m/ 80 см сала \m/
User avatar
Joined: 12 Mar 2012
Posts: 2577
Age: 25
Name: Nick
:thanx:

_________________
1990 AUROPHON BRAINSTORM (Germany) - lossless
1994 MAUSOLEUM CLASSIX (Belgium-Germany) - lossless
1998 VA - GRIM HARVEST - Complete Metal Massacre Volumes I-XII


Top
 Profile  
 
Display posts from previous:  Sort by  
Post new topic Reply to topic  [ 2 posts ] 

All times are UTC + 3 hours


Who is online

Users browsing this forum: No registered users and 1 guest


You cannot post new topics in this forum
You cannot reply to topics in this forum
You cannot edit your posts in this forum
You cannot delete your posts in this forum
You cannot post attachments in this forum

Search for:
Яндекс.Метрика
Powered by phpBB © 2000, 2002, 2005, 2007 phpBB Group