\m/ 80's metal \m/

Информационно-аналитический форум "80 см пыли" (In Search We Trust) "У нас никто никуда не спешит"
Me For You - http://me-4u.com
It is currently 16 Feb 2019

All times are UTC + 3 hours

Spoiler
Chat - temporary registration for foreign users (please leave your application here)







Post new topic Reply to topic  [ 7 posts ] 
Author Message
 
PostPosted: 12 Jan 2014 
А может смените мне статус?..
User avatar
Joined: 22 Nov 2008
Posts: 966
Lоcаtion: Schelcovo,Russia
Age: 47
Name: Сергей
Image

Eternal Ryte - World Requiem (1990)

Pure Metal SPCN7900601546

1.Tightrope Dancer
2.Requiem
3.Someone to Love
4.Say Hello
5.The Killer
6.Surrender
7.On the Line
8.You and Me
9.The King
10.No More Lies

Bobby Smith
Scott Ernest
Fred Gustafsson
Phil St. Vincent

Produced by Caesar Kalinowski

Cue
REM GENRE "Hard Rock"
REM DATE 1990
REM DISCID 850A300A
REM COMMENT "ExactAudioCopy v0.95b4"
PERFORMER "Eternal Ryte"
TITLE "World Requiem"
FILE "Eternal Ryte - World Requiem.wav" WAVE
TRACK 01 AUDIO
TITLE "Tightrope Dancer "
PERFORMER "Eternal Ryte"
INDEX 01 00:00:00
TRACK 02 AUDIO
TITLE "Requiem "
PERFORMER "Eternal Ryte"
INDEX 00 04:35:70
INDEX 01 04:37:25
TRACK 03 AUDIO
TITLE "Someone to Love "
PERFORMER "Eternal Ryte"
INDEX 00 09:17:02
INDEX 01 09:19:57
TRACK 04 AUDIO
TITLE "Say Hello "
PERFORMER "Eternal Ryte"
INDEX 00 13:36:30
INDEX 01 13:39:37
TRACK 05 AUDIO
TITLE "The Killer "
PERFORMER "Eternal Ryte"
INDEX 00 18:26:40
INDEX 01 18:27:70
TRACK 06 AUDIO
TITLE "Surrender "
PERFORMER "Eternal Ryte"
INDEX 00 21:32:15
INDEX 01 21:34:67
TRACK 07 AUDIO
TITLE "On the Line "
PERFORMER "Eternal Ryte"
INDEX 00 25:34:35
INDEX 01 25:36:67
TRACK 08 AUDIO
TITLE "You and Me "
PERFORMER "Eternal Ryte"
INDEX 00 29:16:05
INDEX 01 29:19:02
TRACK 09 AUDIO
TITLE "The King "
PERFORMER "Eternal Ryte"
INDEX 00 34:19:05
INDEX 01 34:20:55
TRACK 10 AUDIO
TITLE "No More Lies"
PERFORMER "Eternal Ryte"
INDEX 00 39:32:70
INDEX 01 39:35:50


Log
Отчёт EAC об извлечении, выполненном 12. января 2014, 12:14 для диска:
Eternal Ryte / World Requiem

Дисковод: HL-DT-STDVDRAM GT32N Adapter: 0 ID: 1
Режим чтения: Достоверный (C2: нет, Точный поток: да, Отключение кэша: да)
Коррекция смещения при чтении: 0
Способность читать области Lead-in и Lead-out : Нет

Выходной формат: Внутренние WAV-операции
44.100 Гц; 16 бит; стерео

Другие параметры:
Заполнение пропущенных сэмплов тишиной : Да
Удаление блоков с тишиной в начале и конце : Нет
Установленный внешний ASPI-интерфейс


Характеристики диапазона извлечения и сообщения об ошибках
Выбранный диапазон
Имя файла C:\Users\Сергей\Music\Eternal Ryte - World Requiem.wav

Пиковый уровень 100.0 %
Качество диапазона 100.0 %
CRC 0117661D
Копирование... OK


Прекрасный образчик христианского хард'н'хеви.

:losik:

:esel:

phpBB [youtube]


Top
 Profile  
 
 
PostPosted: 12 Jan 2014 
\m/ 80 см сала \m/
User avatar
Joined: 12 Mar 2012
Posts: 2589
Age: 25
Name: Nick
Песня с Тытрубы понравилась, заценю альбом полностью. Сереж, спасибо :thanx:

_________________
1990 AUROPHON BRAINSTORM (Germany) - lossless
1994 MAUSOLEUM CLASSIX (Belgium-Germany) - lossless
1998 VA - GRIM HARVEST - Complete Metal Massacre Volumes I-XII


Top
 Profile  
 
 
PostPosted: 12 Jan 2014 
Хиппей (support team)
User avatar
Joined: 30 Jul 2007
Posts: 110281
Lоcаtion: Киев (Kyiv, UA)
Age: 45
Name: Andrey
:thanx:

_________________


Top
 Profile E-mail  
 
 
PostPosted: 12 Jan 2014 
Я набрал 1000 сообщений!
Joined: 24 Oct 2009
Posts: 2162
Lоcаtion: Оренбург
Age: 55
Name: Юра
Спасибо!

_________________
:dash: I am happy!


Top
 Profile E-mail  
 
 
PostPosted: 12 Jan 2014 
Хиппей (support team)
User avatar
Joined: 30 Jul 2007
Posts: 110281
Lоcаtion: Киев (Kyiv, UA)
Age: 45
Name: Andrey
mirror: Narod l M-Cloud

_________________


Top
 Profile E-mail  
 
 
PostPosted: 12 Jan 2014 
Дежурный по КУПу
User avatar
Joined: 17 Aug 2007
Posts: 5871
Age: 50
Name: Ге
:thanx:

_________________
http://jp-mania.ru/
http://jp-tourdates.ucoz.ru/


Top
 Profile  
 
 
PostPosted: 12 Jan 2014 
спирт 100%
User avatar
Joined: 22 Sep 2008
Posts: 4364
Age: 47
Name: Саня
Спасибо! :thanx:


Top
 Profile  
 
Display posts from previous:  Sort by  
Post new topic Reply to topic  [ 7 posts ] 

All times are UTC + 3 hours


Who is online

Users browsing this forum: No registered users and 3 guests


You cannot post new topics in this forum
You cannot reply to topics in this forum
You cannot edit your posts in this forum
You cannot delete your posts in this forum
You cannot post attachments in this forum

Search for:
Яндекс.Метрика
Powered by phpBB © 2000, 2002, 2005, 2007 phpBB Group