\m/ 80's metal \m/

Информационно-аналитический форум "80 см пыли" (In Search We Trust) "У нас никто никуда не спешит"
Me For You - http://me-4u.com
It is currently 19 Apr 2019

All times are UTC + 3 hours

Spoiler
Chat - temporary registration for foreign users (please leave your application here)







Post new topic Reply to topic  [ 7 posts ] 
Author Message
 
PostPosted: 03 Nov 2013 
А может смените мне статус?..
User avatar
Joined: 24 Sep 2012
Posts: 856
Lоcаtion: Нижегородская обл.
Age: 48
Name: Вячеслав
Image

Исполнитель: E.F. Band
Альбом: One Night Stand
Страна: Sweden (Gothenburg)
Год издания: 1985
Страна производителя диска: Germany
Издатель (лейбл) /Номер по каталогу: Mausoleum / 704138.2
Жанр: Heavy Metal
Формат Аудио: FLAC (Cue/Log/Image)+ All Scans
Продолжительность Звучания Альбома: 00:30:49
Размер Архива: 239 Mb (+ 3% recovery)
Источник (релизер): slayer19

Треклист:

1. Gimme Just a Little Rock 'n' Roll 04:01
2. One Night Stand 04:02
3. Out in the Dark 03:18
4. Calling in the Night 03:34
5. Marie Rosa (Hungry for Love) 03:26
6. Big Shot 03:02
7. Cold Heart of the City 05:36
8. Toll of the Bell 03:50

"Лог создания рипа"
Exact Audio Copy V1.0 beta 3 from 29. August 2011

Отчёт EAC об извлечении, выполненном 3. ноября 2013, 12:48

E.F. Band / One Night Stand

Дисковод: Optiarc DVD RW AD-7200A Adapter: 0 ID: 0

Режим чтения : Достоверность
Использование точного потока : Да
Отключение кэша аудио : Да
Использование указателей C2 : Нет

Коррекция смещения при чтении : 48
Способность читать области Lead-in и Lead-out : Нет
Заполнение пропущенных сэмплов тишиной : Да
Удаление блоков с тишиной в начале и конце : Нет
При вычислениях CRC использовались нулевые сэмплы : Да
Интерфейс : Встроенный Win32-интерфейс для Win NT/2000

Выходной формат : Пользовательский кодировщик
Выбранный битрейт : 128 kBit/s
Качество : Высокий
Добавление ID3-тега : Нет
Утилита сжатия : C:\Program Files\FLAC\FLAC frontend.exe


TOC извлечённого CD

Трек | Старт | Длительность | Начальный сектор | Конечный сектор
---------------------------------------------------------------------
1 | 0:00.00 | 4:00.60 | 0 | 18059
2 | 4:00.60 | 4:02.37 | 18060 | 36246
3 | 8:03.22 | 3:18.15 | 36247 | 51111
4 | 11:21.37 | 3:33.65 | 51112 | 67151
5 | 14:55.27 | 3:25.58 | 67152 | 82584
6 | 18:21.10 | 3:02.12 | 82585 | 96246
7 | 21:23.22 | 5:35.40 | 96247 | 121411
8 | 26:58.62 | 3:50.30 | 121412 | 138691


Характеристики диапазона извлечения и сообщения об ошибках

Выбранный диапазон

Имя файла D:\МОИ ФАЙЛЫ\LOSSLESS\slayer19\E.F. Band - One Night Stand 1985 (Reissued 1994)\E.F. Band - One Night Stand.wav

Пиковый уровень 100.0 %
Скорость извлечения 3.5 X
Качество диапазона 99.9 %
CRC теста 3F58A40B
CRC копии 3F58A40B
Копирование... OK

Ошибок не произошло


AccurateRip: сводка

Трек 1 отсутствует в базе данных
Трек 2 отсутствует в базе данных
Трек 3 отсутствует в базе данных
Трек 4 отсутствует в базе данных
Трек 5 отсутствует в базе данных
Трек 6 отсутствует в базе данных
Трек 7 отсутствует в базе данных
Трек 8 отсутствует в базе данных

Ни одного трека нет в базе AccurateRip

Конец отчёта

---- CUETools DB Plugin V2.1.3

[CTDB TOCID: G10z10fgZ8CL50KxualYUZSHEnA-] database access error: The remote name could not be resolved: 'db.cuetools.net'


==== Контрольная сумма отчёта 7AB44B485E28BB90E79B3217CB9946C329D8A3422145F5EE5A9A4AB968CDD6F7 ====

"Фото"
Image


Cкачать: http://rusfolder.com/38662820

_________________
Image


Top
 Profile E-mail  
 
 
PostPosted: 03 Nov 2013 
\m/ 80 см сала \m/
User avatar
Joined: 12 Mar 2012
Posts: 2590
Age: 26
Name: Nick
:thanx:
Добавляю в Classix-коллектор.

_________________
1990 AUROPHON BRAINSTORM (Germany) - lossless
1994 MAUSOLEUM CLASSIX (Belgium-Germany) - lossless
1998 VA - GRIM HARVEST - Complete Metal Massacre Volumes I-XII


Top
 Profile  
 
 
PostPosted: 03 Nov 2013 
Почётный металлург
User avatar
Joined: 15 Sep 2007
Posts: 4357
Lоcаtion: Хабаровск
Age: 59
Name: чуть выше
:thanx: :thanx: :thanx:

_________________
Коль будешь людей ты ослами честить,
тебе человеком меж них не прослыть!
(Саади, персидский поэт, 13в.)


Top
 Profile  
 
 
PostPosted: 03 Nov 2013 
спирт 100%
User avatar
Joined: 22 Sep 2008
Posts: 4390
Age: 47
Name: Саня
Спасибо! :true: :thanx:


Top
 Profile  
 
 
PostPosted: 04 Nov 2013 
Alive Again
User avatar
Joined: 17 Dec 2008
Posts: 4747
Lоcаtion: Курск Воронеж Оскол
Age: 44
Name: Дмитрий
:thanx:


Top
 Profile E-mail  
 
 
PostPosted: 04 Nov 2013 
Хиппей (support team)
User avatar
Joined: 30 Jul 2007
Posts: 111707
Lоcаtion: Киев (Kyiv, UA)
Age: 45
Name: Andrey
:thanx:

mirror: Narod l M-Cloud

_________________


Top
 Profile E-mail  
 
 
PostPosted: 04 Nov 2013 
Хиппей (support team)
User avatar
Joined: 30 Jul 2007
Posts: 111707
Lоcаtion: Киев (Kyiv, UA)
Age: 45
Name: Andrey
Хы. Слав, место на яДиске закончилось? :scratch:

_________________


Top
 Profile E-mail  
 
Display posts from previous:  Sort by  
Post new topic Reply to topic  [ 7 posts ] 

All times are UTC + 3 hours


Who is online

Users browsing this forum: No registered users and 1 guest


You cannot post new topics in this forum
You cannot reply to topics in this forum
You cannot edit your posts in this forum
You cannot delete your posts in this forum
You cannot post attachments in this forum

Search for:
Яндекс.Метрика
Powered by phpBB © 2000, 2002, 2005, 2007 phpBB Group