\m/ 80's metal \m/

Информационно-аналитический форум "80 см пыли" (In Search We Trust) "У нас никто никуда не спешит"
Me For You - http://me-4u.com
It is currently 17 Jul 2019

All times are UTC + 3 hours

Spoiler
Chat - temporary registration for foreign users (please leave your application here)







Post new topic Reply to topic  [ 4 posts ] 
Author Message
 
PostPosted: 20 Aug 2013 
Хиппей (support team)
User avatar
Joined: 30 Jul 2007
Posts: 113512
Lоcаtion: Киев (Kyiv, UA)
Age: 46
Name: Andrey
Epidemic - 1989 - The Truth Of What Will Be [flacs]

Image

Genre: Hardcore/Speed Thrash
Location: USA, S-Frisco
Format: flacs + cue + log + no scans
Size: 159 Mb


Line-up:
Karl Fulli - vocals
Erik Moggridge - guitars
Guy Higbey - guitars
Mark Bodine - bass
Bob Cochran - drums

    1. Amx - 03:03
    2. Live your Death - 01:38
    3. In Fear we Kill - 04:40
    4. Thigh Rubbage - 01:12
    5. Three Witches - 04:26
    6. Finer Things in Life - 01:34
    7. Hands of Ruby - 03:56
    8. Silent Torture - 01:52
    9. Six Seconds - 00:44

    TPT: 23:05

F-Bit l Narod l eDisk

Не знаю, что там дальше играла группа, но на дебютнике представлен забойный Speed Thrash/Hardcore с иногда порыкивающим вокалом :true: По сути это и етсь первородный трушный хардкор.
Обожаю такой скоростной и бестолковый музон для хэдбенгинга :kz:

8/10

Source: WWW

log
Selected range

Filename Epidemic - The Truth Of What Will Be.wav

Peak level 96.9 %
Range quality 100.0 %
Copy CRC 50D9EB3B
Copy OK

No errors occurred

End of status report

cue
REM GENRE "Thrash Metal"
REM DATE 1989
PERFORMER "Epidemic"
TITLE "The Truth Of What Will Be"
FILE "Epidemic - The Truth Of What Will Be.wav" WAVE
TRACK 01 AUDIO
TITLE "Amx"
PERFORMER "Epidemic"
INDEX 01 00:00:00
TRACK 02 AUDIO
TITLE "Live Your Death"
PERFORMER "Epidemic"
INDEX 00 03:04:13
INDEX 01 03:09:15
TRACK 03 AUDIO
TITLE "In Fear We Kill"
PERFORMER "Epidemic"
INDEX 00 04:47:55
INDEX 01 04:47:68
TRACK 04 AUDIO
TITLE "Thigh Rubbage"
PERFORMER "Epidemic"
INDEX 00 09:26:15
INDEX 01 09:27:70
TRACK 05 AUDIO
TITLE "Three Witches"
PERFORMER "Epidemic"
INDEX 00 10:40:58
INDEX 01 10:42:53
TRACK 06 AUDIO
TITLE "Finer Things In Life"
PERFORMER "Epidemic"
INDEX 00 15:07:10
INDEX 01 15:07:70
TRACK 07 AUDIO
TITLE "Hands Of Ruby + Silent Torture + Six Seconds"
PERFORMER "Epidemic"
INDEX 00 16:43:43
INDEX 01 16:44:70

_________________


Top
 Profile E-mail  
 
 
PostPosted: 20 Aug 2013 
ТрэшЭрос
User avatar
Joined: 18 Jul 2011
Posts: 2303
Lоcаtion: Гулькевичи
Age: 44
Name: Александр
Саныч, :thanx:
Фуф, еле нашёл эту банду в семействе "заразных"... :true:

_________________
Thrash no trash!!!


Top
 Profile E-mail  
 
 
PostPosted: 21 Aug 2013 
ТрэшЭрос
User avatar
Joined: 18 Jul 2011
Posts: 2303
Lоcаtion: Гулькевичи
Age: 44
Name: Александр
Scatterbrain wrote:
6. Finer Things in Life - 01:34


Крайние 11 секунд прослушал несколько раз... :ura:

_________________
Thrash no trash!!!


Top
 Profile E-mail  
 
 
PostPosted: 21 Aug 2013 
Хиппей (support team)
User avatar
Joined: 30 Jul 2007
Posts: 113512
Lоcаtion: Киев (Kyiv, UA)
Age: 46
Name: Andrey
Не помню уже... Это там, где отрыжко была?

_________________


Top
 Profile E-mail  
 
Display posts from previous:  Sort by  
Post new topic Reply to topic  [ 4 posts ] 

All times are UTC + 3 hours


Who is online

Users browsing this forum: No registered users and 1 guest


You cannot post new topics in this forum
You cannot reply to topics in this forum
You cannot edit your posts in this forum
You cannot delete your posts in this forum
You cannot post attachments in this forum

Search for:
Яндекс.Метрика
Powered by phpBB © 2000, 2002, 2005, 2007 phpBB Group