\m/ 80's metal \m/

Информационно-аналитический форум "80 см пыли" (In Search We Trust) "У нас никто никуда не спешит"
Железнодорожная биржа - RailAgent
It is currently 25 May 2018

All times are UTC + 3 hours

Spoiler
Chat - temporary registration for foreign users (please leave your application here)







Post new topic Reply to topic  [ 5 posts ] 
Author Message
 
PostPosted: 18 Aug 2013 
Хиппей (support team)
User avatar
Joined: 30 Jul 2007
Posts: 103633
Lоcаtion: Киев (Kyiv, UA)
Age: 44
Name: Andrey
Evil Sinner - 1989 - Evil Sinner [flacs]

Image

Genre: Speed Thrash/Hardcore
Location: Belgium
Format: flacs + log + cue + no scans
Size: 224 Mb


Line-up:
Carlo Roels - vocals
Rolf V. - guitars
Geert Heernaert - guitars
Renaat Danckaert - bass
Jean-Luc Devos - drums


    1. Thrashers - 04:48
    2. Evil Sinner - 04:46
    3. Don't Kill the Animals - 03:48
    4. The Gang - 05:54
    5. Fate - 04:26
    6. Death to You - 05:16
    7. Mosh (Part One) - 02:04

    TPT: 31:02

Где-то я этого лосика спёр... Постепенно явно вспомню и найду автора рипа :pardon:
А пока же заслушаю сам альбом :pardon:
Завтра отпишусь и дооформлю всё.

зы. Отслушал и так и эдак. Хороша музычка - трэш на стыке хардкора. Но всё же больше трэшака весёлого, а хардкор если и появляется, как в духе Cryptic Slaughter, только более техничным и вокал чуть грубее.

6+/10

F-Bit l Narod l eDisk

log
Selected range

Filename Evil Sinner - Evil Sinner.wav

Peak level 99.1 %
Range quality 100.0 %
Copy CRC BE54C587
Copy OK

No errors occurred

cue
REM GENRE "Thrash Metal"
REM DATE 1989
PERFORMER "Evil Sinner"
TITLE "Evil Sinner"
FILE "Evil Sinner - Evil Sinner.wav" WAVE
TRACK 01 AUDIO
TITLE "Thrashers"
PERFORMER "Evil Sinner"
INDEX 01 00:00:00
TRACK 02 AUDIO
TITLE "Evil Sinner"
PERFORMER "Evil Sinner"
INDEX 00 04:54:37
INDEX 01 04:55:62
TRACK 03 AUDIO
TITLE "Don't Kill The Animals"
PERFORMER "Evil Sinner"
INDEX 00 09:42:00
INDEX 01 09:43:27
TRACK 04 AUDIO
TITLE "The Gang"
PERFORMER "Evil Sinner"
INDEX 00 13:30:32
INDEX 01 13:33:12
TRACK 05 AUDIO
TITLE "Fate"
PERFORMER "Evil Sinner"
INDEX 00 19:27:22
INDEX 01 19:28:50
TRACK 06 AUDIO
TITLE "Death To You"
PERFORMER "Evil Sinner"
INDEX 00 23:54:40
INDEX 01 23:56:27
TRACK 07 AUDIO
TITLE "Mosh (Part One)"
PERFORMER "Evil Sinner"
INDEX 00 29:12:25
INDEX 01 29:14:20

_________________


Top
 Profile E-mail  
 
 
PostPosted: 19 Aug 2013 
Доктор энтомологии
User avatar
Joined: 22 Jan 2009
Posts: 9039
Lоcаtion: Даугавпилс
Age: 43
Name: Алексей
:thanx:


Top
 Profile  
 
 
PostPosted: 20 Aug 2013 
ТрэшЭрос
User avatar
Joined: 18 Jul 2011
Posts: 2296
Lоcаtion: Гулькевичи
Age: 43
Name: Александр
Scatterbrain wrote:
Где-то я...

тута? :oops:

_________________
Thrash no trash!!!


Top
 Profile E-mail  
 
 
PostPosted: 20 Aug 2013 
А может смените мне статус?..
User avatar
Joined: 25 Mar 2009
Posts: 563
Lоcаtion: Нижний Новгород
Age: 48
Name: Владимир
:thanx:


Top
 Profile  
 
 
PostPosted: 20 Aug 2013 
Хиппей (support team)
User avatar
Joined: 30 Jul 2007
Posts: 103633
Lоcаtion: Киев (Kyiv, UA)
Age: 44
Name: Andrey
Scatterbrain wrote:
Где-то я...

тута? :oops:

Не-а, тама вроде рип одним куском, а здесь потрэковый :vic:

_________________


Top
 Profile E-mail  
 
Display posts from previous:  Sort by  
Post new topic Reply to topic  [ 5 posts ] 

All times are UTC + 3 hours


Who is online

Users browsing this forum: No registered users and 1 guest


You cannot post new topics in this forum
You cannot reply to topics in this forum
You cannot edit your posts in this forum
You cannot delete your posts in this forum
You cannot post attachments in this forum

Search for:
Яндекс.Метрика
Powered by phpBB © 2000, 2002, 2005, 2007 phpBB Group