\m/ 80's metal \m/

Информационно-аналитический форум "80 см пыли" (In Search We Trust) "У нас никто никуда не спешит"
Me For You - http://me-4u.com
It is currently 18 Apr 2019

All times are UTC + 3 hours

Spoiler
Chat - temporary registration for foreign users (please leave your application here)







Post new topic Reply to topic  [ 13 posts ] 
Author Message
 
PostPosted: 20 Jun 2013 
Генеральный thrasher
User avatar
Joined: 03 Oct 2008
Posts: 3695
Lоcаtion: Ханты-Мансийский АО
Age: 44
Name: Сергей
Image

Year:1991
Style:Thrash Metal
Country:Germany
Audio:Flac+Cue+Log+Scans
Source:my CD
Size:82Mb
Label:We Bite Records

Line-Up:
Chris Zenk - vocals
Michael Hankel - guitars,backing vocals
Stefan Römhild - guitars,backing vocals
Klaus Nowakowski - drums
Peter Ewaldt - bass

Tracklist:
01. 70th Floor
02. The Power Within
03. Gunman

"Cue"
REM GENRE "Thrash Metal"
REM DATE 1991
REM DISCID 1A029803
REM COMMENT "ExactAudioCopy v0.99pb5"
PERFORMER "Erosion"
TITLE "Gunman"
FILE "Erosion - Gunman.flac" WAVE
TRACK 01 AUDIO
TITLE "70th Floor"
PERFORMER "Erosion"
INDEX 01 00:00:00
TRACK 02 AUDIO
TITLE "The Power Within"
PERFORMER "Erosion"
INDEX 00 02:56:17
INDEX 01 02:59:00
TRACK 03 AUDIO
TITLE "Gunman"
PERFORMER "Erosion"
INDEX 00 05:51:12
INDEX 01 05:54:12

"Log"
Exact Audio Copy V0.99 prebeta 5 from 4. May 2009

Отчёт EAC об извлечении, выполненном 27. мая 2013, 12:39

Erosion / Gunman

Дисковод: MATSHITADVD-RAM UJ8A0AS Adapter: 0 ID: 1

Режим чтения : Достоверность
Использование точного потока : Да
Отключение кэша аудио : Да
Использование указателей C2 : Нет

Коррекция смещения при чтении : 102
Способность читать области Lead-in и Lead-out : Нет
Заполнение пропущенных сэмплов тишиной : Да
Удаление блоков с тишиной в начале и конце : Нет
При вычислениях CRC использовались нулевые сэмплы : Да
Интерфейс : Встроенный Win32-интерфейс для Win NT/2000

Выходной формат : Пользовательский кодировщик
Выбранный битрейт : 1024 kBit/s
Качество : Высокий
Добавление ID3-тэга : Нет
Утилита сжатия : C:\Program Files\Exact Audio Copy\FLAC\FLAC.EXE
Дополнительные параметры : -6 -V -T "ARTIST=%a" -T "TITLE=%t" -T "ALBUM=%g" -T "DATE=%y" -T "TRACKNUMBER=%n" -T "GENRE=%m" -T "COMMENT=%e" %s -o %d


TOC извлечённого CD

Трек | Старт | Длительность | Начальный сектор | Конечный сектор
---------------------------------------------------------------------
1 | 0:00.00 | 2:59.00 | 0 | 13424
2 | 2:59.00 | 2:55.12 | 13425 | 26561
3 | 5:54.12 | 5:10.20 | 26562 | 49831


Характеристики диапазона извлечения и сообщения об ошибках

Выбранный диапазон

Имя файла C:\Users\эксперт\Music\Erosion - Gunman.wav

Пиковый уровень 100.0 %
Качество диапазона 100.0 %
CRC копии A6402363
Копирование... OK

Ошибок не произошло


AccurateRip: сводка

Трек 1 точное извлечение (доверие 2) [301F0BAB]
Трек 2 точное извлечение (доверие 2) [4376D97B]
Трек 3 точное извлечение (доверие 2) [F6EB6A23]

Все треки извлечены точно

Конец отчёта


Gunman

Увлёкся собиранием классики.Может кому-нибудь нужен нормальный рип...


Last edited by thorbeorn on 24 Jul 2015, edited 1 time in total.

Top
 Profile  
 
 
PostPosted: 20 Jun 2013 
А может смените мне статус?..
User avatar
Joined: 24 Sep 2012
Posts: 856
Lоcаtion: Нижегородская обл.
Age: 48
Name: Вячеслав
Отличное увлечение, спасибо, послушаем! :thanx:

_________________
Image


Top
 Profile E-mail  
 
 
PostPosted: 20 Jun 2013 
Хиппей (support team)
User avatar
Joined: 30 Jul 2007
Posts: 111657
Lоcаtion: Киев (Kyiv, UA)
Age: 45
Name: Andrey
:thanx:

_________________


Top
 Profile E-mail  
 
 
PostPosted: 21 Jun 2013 
Рарник и трушник
User avatar
Joined: 25 Dec 2009
Posts: 8591
Lоcаtion: Москва
Age: 53
Name: Виталий
Спасибо!!! :thanx:


Top
 Profile  
 
 
PostPosted: 29 Jun 2013 
Работнечег
User avatar
Joined: 28 Aug 2007
Posts: 5800
Lоcаtion: г. Москва
Age: 30
Name: Дима
Спасибо, Серег! :true:


Top
 Profile E-mail  
 
 
PostPosted: 23 Jul 2015 
\m/ 80 см сала \m/
User avatar
Joined: 12 Mar 2012
Posts: 2590
Age: 26
Name: Nick
Перелейте, пожалуйста :oops:

_________________
1990 AUROPHON BRAINSTORM (Germany) - lossless
1994 MAUSOLEUM CLASSIX (Belgium-Germany) - lossless
1998 VA - GRIM HARVEST - Complete Metal Massacre Volumes I-XII


Top
 Profile  
 
 
PostPosted: 23 Jul 2015 
консэрваторъ
Joined: 11 Aug 2007
Posts: 16807
Lоcаtion: Псков
Age: 45
Name: Сергей
Everhard wrote:
Перелейте

Это хрень?.. http://rutracker.org/forum/viewtopic.php?t=2710872

_________________
THRASH 'EM ALL


Top
 Profile E-mail  
 
 
PostPosted: 23 Jul 2015 
Генеральный thrasher
User avatar
Joined: 03 Oct 2008
Posts: 3695
Lоcаtion: Ханты-Мансийский АО
Age: 44
Name: Сергей
Перелью завтра,если рип не удалял с компа...


Top
 Profile  
 
 
PostPosted: 23 Jul 2015 
\m/ 80 см сала \m/
User avatar
Joined: 12 Mar 2012
Posts: 2590
Age: 26
Name: Nick
Сергей, если не в напряг - посмотрите заодно, остались ли остальные альбомы группы. Увы, в Оксаны на форуме все ссылки прокисли, а на рутрекере что-то глухо с сидами.

_________________
1990 AUROPHON BRAINSTORM (Germany) - lossless
1994 MAUSOLEUM CLASSIX (Belgium-Germany) - lossless
1998 VA - GRIM HARVEST - Complete Metal Massacre Volumes I-XII


Top
 Profile  
 
 
PostPosted: 24 Jul 2015 
консэрваторъ
Joined: 11 Aug 2007
Posts: 16807
Lоcаtion: Псков
Age: 45
Name: Сергей
Everhard wrote:
на рутрекере что-то глухо с сидами

Ты бы поставил на закачку, а сиды появятся... Уверен, что за пару тройку дней выкачаешь всё...

_________________
THRASH 'EM ALL


Top
 Profile E-mail  
 
 
PostPosted: 24 Jul 2015 
Генеральный thrasher
User avatar
Joined: 03 Oct 2008
Posts: 3695
Lоcаtion: Ханты-Мансийский АО
Age: 44
Name: Сергей
Серёга,к чему этот геморрой с трэкером?Здесь ссылку уже обновил.Заливаю Erosion III.Тоже свой рип.


Top
 Profile  
 
 
PostPosted: 24 Jul 2015 
\m/ 80 см сала \m/
User avatar
Joined: 12 Mar 2012
Posts: 2590
Age: 26
Name: Nick
:thanx:

_________________
1990 AUROPHON BRAINSTORM (Germany) - lossless
1994 MAUSOLEUM CLASSIX (Belgium-Germany) - lossless
1998 VA - GRIM HARVEST - Complete Metal Massacre Volumes I-XII


Top
 Profile  
 
 
PostPosted: 25 Jul 2015 
консэрваторъ
Joined: 11 Aug 2007
Posts: 16807
Lоcаtion: Псков
Age: 45
Name: Сергей
Отреапино... :true:

_________________
THRASH 'EM ALL


Top
 Profile E-mail  
 
Display posts from previous:  Sort by  
Post new topic Reply to topic  [ 13 posts ] 

All times are UTC + 3 hours


Who is online

Users browsing this forum: No registered users and 1 guest


You cannot post new topics in this forum
You cannot reply to topics in this forum
You cannot edit your posts in this forum
You cannot delete your posts in this forum
You cannot post attachments in this forum

Search for:
Яндекс.Метрика
Powered by phpBB © 2000, 2002, 2005, 2007 phpBB Group