\m/ 80's metal \m/

Информационно-аналитический форум "80 см пыли" (In Search We Trust) "У нас никто никуда не спешит"
Me For You - http://me-4u.com
It is currently 16 Feb 2019

All times are UTC + 3 hours

Spoiler
Chat - temporary registration for foreign users (please leave your application here)







Post new topic Reply to topic  [ 31 posts ]  Go to page Previous  1, 2
Author Message
 
PostPosted: 05 Dec 2015 
семерых одним ударом
Joined: 18 Aug 2007
Posts: 3918
Lоcаtion: Владивосток
Age: 43
Name: Николай Николаевич
спасибо за миник...на рутрекере ссылка подмерла


Top
 Profile  
 
 
PostPosted: 17 Oct 2016 
Генеральный thrasher
User avatar
Joined: 03 Oct 2008
Posts: 3592
Lоcаtion: Ханты-Мансийский АО
Age: 43
Name: Сергей
Image

Year:2015
Style:Heavy/Thrash Metal
Country:U.S.A.
Archive:Flac+Cue+Log+Scans
Size:378Mb
Source:my CD
Label:Divebomb Records

Tracklist:
01. Do It Again 04:53
02. Demons Of Silence 04:16
03. The Hardest Sorrow 05:14
04. Piece Of The Factory 06:03
05. Beside You, Beside Me 05:17
06. An Old Fashioned Beating 04:28
07. Hard To Follow 06:09
08. Prisoner 04:50
09. Can't Breathe 03:50
10. Letting Go 06:21

"Cue"
REM GENRE "Heavy/Thrash Metal"
REM DATE 2015
REM DISCID 760C070A
REM COMMENT "ExactAudioCopy v1.1"
PERFORMER "Enertia"
TITLE "Piece Of The Factory"
FILE "Enertia - Piece Of The Factory.flac" WAVE
TRACK 01 AUDIO
TITLE "Do It Again"
PERFORMER "Enertia"
INDEX 01 00:00:00
TRACK 02 AUDIO
TITLE "Demons of Silence"
PERFORMER "Enertia"
INDEX 01 04:53:29
TRACK 03 AUDIO
TITLE "The Hardest Sorrow"
PERFORMER "Enertia"
INDEX 01 09:08:70
TRACK 04 AUDIO
TITLE "Piece Of The Factory"
PERFORMER "Enertia"
INDEX 01 14:23:04
TRACK 05 AUDIO
TITLE "Beside You, Beside Me"
PERFORMER "Enertia"
INDEX 01 20:25:50
TRACK 06 AUDIO
TITLE "An Old Fashioned Beating"
PERFORMER "Enertia"
INDEX 01 25:42:23
TRACK 07 AUDIO
TITLE "Hard to Follow"
PERFORMER "Enertia"
INDEX 01 30:09:67
TRACK 08 AUDIO
TITLE "Prisoner"
PERFORMER "Enertia"
INDEX 01 36:19:13
TRACK 09 AUDIO
TITLE "Can't Breathe"
PERFORMER "Enertia"
INDEX 01 41:08:63
TRACK 10 AUDIO
TITLE "Letting Go"
PERFORMER "Enertia"
INDEX 01 44:58:57

"Log"
Exact Audio Copy V1.1 from 23. June 2015

Отчёт EAC об извлечении, выполненном 17. октября 2016, 9:41

Enertia / Piece Of The Factory

Дисковод: HL-DT-STDVDRAM GTA0N Adapter: 1 ID: 0

Режим чтения : Достоверность
Использование точного потока : Да
Отключение кэша аудио : Да
Использование указателей C2 : Нет

Коррекция смещения при чтении : 102
Способность читать области Lead-in и Lead-out : Нет
Заполнение пропущенных сэмплов тишиной : Да
Удаление блоков с тишиной в начале и конце : Нет
При вычислениях CRC использовались нулевые сэмплы : Да
Интерфейс : Встроенный Win32-интерфейс для Win NT/2000

Выходной формат : Пользовательский кодировщик
Выбранный битрейт : 768 kBit/s
Качество : Высокий
Добавление ID3-тега : Нет
Утилита сжатия : C:\Program Files (x86)\Exact Audio Copy\FLAC\FLAC.EXE
Дополнительные параметры : -6 -V -T "ARTIST=%artist%" -T "TITLE=%title%" -T "ALBUM=%albumtitle%" -T "DATE=%year%" -T "TRACKNUMBER=%tracknr%" -T "GENRE=%genre%" -T "COMMENT=%comment%" -T "BAND=%albuminterpret%" -T "ALBUMARTIST=%albuminterpret%" -T "COMPOSER=%composer%" %haslyrics%--tag-from-file=LYRICS="%lyricsfile%"%haslyrics% -T "DISCNUMBER=%cdnumber%" -T "TOTALDISCS=%totalcds%" -T "TOTALTRACKS=%numtracks%" %hascover%--picture="%coverfile%"%hascover% %source% -o %dest%


TOC извлечённого CD

Трек | Старт | Длительность | Начальный сектор | Конечный сектор
---------------------------------------------------------------------
1 | 0:00.00 | 4:53.29 | 0 | 22003
2 | 4:53.29 | 4:15.41 | 22004 | 41169
3 | 9:08.70 | 5:14.09 | 41170 | 64728
4 | 14:23.04 | 6:02.46 | 64729 | 91924
5 | 20:25.50 | 5:16.48 | 91925 | 115672
6 | 25:42.23 | 4:27.44 | 115673 | 135741
7 | 30:09.67 | 6:09.21 | 135742 | 163437
8 | 36:19.13 | 4:49.50 | 163438 | 185162
9 | 41:08.63 | 3:49.69 | 185163 | 202406
10 | 44:58.57 | 6:20.49 | 202407 | 230955


Характеристики диапазона извлечения и сообщения об ошибках

Выбранный диапазон

Имя файла C:\Users\магазин\Music\Enertia - Piece Of The Factory.wav

Пиковый уровень 98.8 %
Скорость извлечения 4.1 X
Качество диапазона 100.0 %
CRC копии 2BC4D65E
Копирование... OK

Ошибок не произошло


AccurateRip: сводка

Трек 1 отсутствует в базе данных
Трек 2 отсутствует в базе данных
Трек 3 отсутствует в базе данных
Трек 4 отсутствует в базе данных
Трек 5 отсутствует в базе данных
Трек 6 отсутствует в базе данных
Трек 7 отсутствует в базе данных
Трек 8 отсутствует в базе данных
Трек 9 отсутствует в базе данных
Трек 10 отсутствует в базе данных

Ни одного трека нет в базе AccurateRip

Конец отчёта

---- CUETools DB Plugin V2.1.6

[CTDB TOCID: Xo0cMaW15iqCpnTQxN677ybA5yA-] found
Submit result: Xo0cMaW15iqCpnTQxN677ybA5yA- has been confirmed
Track | CTDB Status
1 | (3/3) Accurately ripped
2 | (3/3) Accurately ripped
3 | (3/3) Accurately ripped
4 | (3/3) Accurately ripped
5 | (3/3) Accurately ripped
6 | (3/3) Accurately ripped
7 | (3/3) Accurately ripped
8 | (3/3) Accurately ripped
9 | (3/3) Accurately ripped
10 | (3/3) Accurately ripped


Piece Of The Factory


Top
 Profile  
 
 
PostPosted: 17 Oct 2016 
Хиппей (support team)
User avatar
Joined: 30 Jul 2007
Posts: 110281
Lоcаtion: Киев (Kyiv, UA)
Age: 45
Name: Andrey
thorbeorn wrote:
Piece Of The Factory

:thanx:

mirror: iFolder l Narod l M-Cloud

_________________


Top
 Profile E-mail  
 
 
PostPosted: 17 Oct 2016 
Хиппей (support team)
User avatar
Joined: 30 Jul 2007
Posts: 110281
Lоcаtion: Киев (Kyiv, UA)
Age: 45
Name: Andrey
thorbeorn wrote:
Victim Of Thought 1
Victim Of Thought 2

:thanx:

mirror:

CD 1 - iFolder l Narod l M-Cloud
CD 2 - iFolder l Narod l M-Cloud

_________________


Top
 Profile E-mail  
 
 
PostPosted: 17 Oct 2016 
Прокъмитолист
User avatar
Joined: 12 Aug 2007
Posts: 6527
Lоcаtion: Санктъ-Петербуркъ
Age: 51
Name: Олекъ
:thanx:

_________________
прокъметол - это музыко, от которово есть прок (ы)


Top
 Profile  
 
 
PostPosted: 29 Oct 2016 
Хиппей (support team)
User avatar
Joined: 30 Jul 2007
Posts: 110281
Lоcаtion: Киев (Kyiv, UA)
Age: 45
Name: Andrey
thorbeorn wrote:
Piece Of The Factory

В общем, если долго и внимательно слушать альбом, то.. он начинает нравится =))

6/10

Представьте, что группа играет мягковатый трэш с вокалистом типа Джона Буша, но чуть резче поющего.
Представили? И теперь вспомните группу Monster Magnet и ещё немного её послушайте.

Хит альбома - 9-я песня :lob: :lob: :lob:

_________________


Top
 Profile E-mail  
 
 
PostPosted: 29 Oct 2016 
Хиппей (support team)
User avatar
Joined: 30 Jul 2007
Posts: 110281
Lоcаtion: Киев (Kyiv, UA)
Age: 45
Name: Andrey
thorbeorn wrote:
Victim Of Thought

Обана... :shok:
Баба поёт уже? :lloo:

_________________


Top
 Profile E-mail  
 
 
PostPosted: 30 Oct 2016 
Хиппей (support team)
User avatar
Joined: 30 Jul 2007
Posts: 110281
Lоcаtion: Киев (Kyiv, UA)
Age: 45
Name: Andrey
thorbeorn wrote:
Victim Of Thought

Обана... :shok:
Баба поёт уже? :lloo:

Так и не понял. Вроде чередуются :tro:

Альбом очень уж продолжительный (почти два часа) и разнообразием не утомляет, потому слушать его внимательно чревато. А как фон почти нет смысла - иногда попадаются некоторые сбивки, которые, при работе молотком, могут привести к ударам по пальцам. Своим.

4/10

Схожу гляну на М-А, что это был за альбом, не сборник ли. Кто там пел и что вообще за группа такая...

_________________


Top
 Profile E-mail  
 
 
PostPosted: 30 Oct 2016 
Хиппей (support team)
User avatar
Joined: 30 Jul 2007
Posts: 110281
Lоcаtion: Киев (Kyiv, UA)
Age: 45
Name: Andrey
Да, сборник.
Кто поёт, не указано на М-А. В Буклете же главный вокалист и второстепенный - мужчинки :lloo:

_________________


Top
 Profile E-mail  
 
 
PostPosted: 30 Oct 2016 
Хиппей (support team)
User avatar
Joined: 30 Jul 2007
Posts: 110281
Lоcаtion: Киев (Kyiv, UA)
Age: 45
Name: Andrey
church wrote:
Enertia - Law Of Three EP (1996)


Собственно, пока лучший их худших альбом группы. Явно из-за того, что короткий =)
Некий коварный павер-трэш с чем-то техно-трэшевым и приальтернативненным.
И вот с таким ещё вокалом - если не смотреть на видео, то я лично не понял бы, кто поёт - девочка, или мальчик :pardon:


_________________


Top
 Profile E-mail  
 
 
PostPosted: 30 Oct 2016 
Хиппей (support team)
User avatar
Joined: 30 Jul 2007
Posts: 110281
Lоcаtion: Киев (Kyiv, UA)
Age: 45
Name: Andrey
thorbeorn wrote:
Force


Надоела группа :fingal:
Но парочка песен есть неплохих.

3/10

_________________


Top
 Profile E-mail  
 
Display posts from previous:  Sort by  
Post new topic Reply to topic  [ 31 posts ]  Go to page Previous  1, 2

All times are UTC + 3 hours


Who is online

Users browsing this forum: No registered users and 2 guests


You cannot post new topics in this forum
You cannot reply to topics in this forum
You cannot edit your posts in this forum
You cannot delete your posts in this forum
You cannot post attachments in this forum

Search for:
Яндекс.Метрика
Powered by phpBB © 2000, 2002, 2005, 2007 phpBB Group