\m/ 80's metal \m/

Информационно-аналитический форум "80 см пыли" (In Search We Trust) "У нас никто никуда не спешит"
Me For You - http://me-4u.com
It is currently 22 Aug 2019

All times are UTC + 3 hours

Spoiler
Chat - temporary registration for foreign users (please leave your application here)







Post new topic Reply to topic  [ 31 posts ]  Go to page 1, 2  Next
Author Message
 
PostPosted: 13 May 2013 
Генеральный thrasher
User avatar
Joined: 03 Oct 2008
Posts: 3717
Lоcаtion: Ханты-Мансийский АО
Age: 44
Name: Сергей
Image

Year:2004
Style:Thrash Metal
Country:U.S.A.
Audio:Flac+Cue+Log+Scans
Size:422Mb
Source:my CD
Label:Mausoleum

Line-Up:
Scott Featherstone - vocals
Roman Singleton - guitar
Joe Paciolla - bass
Jeff Daley - drums

Tracklist:
01. Time To Go 05:14
02. Messed Up Son 05:27
03. Anything 05:23
04. Secrets 05:01
05. Bleed 04:28
06. Not Alone 04:35
07. Hole In The Head 04:29
08. Clearer 04:04
09. Withstand 04:56
10. The Sky Is Falling 04:35
11. Gun 05:06

"Cue"
REM GENRE "Thrash Metal"
REM DATE 2004
REM DISCID 990C820B
REM COMMENT "ExactAudioCopy v0.99pb5"
PERFORMER "Enertia"
TITLE "Force"
FILE "Enertia - Force.flac" WAVE
TRACK 01 AUDIO
TITLE "Time to Go"
PERFORMER "Enertia"
INDEX 01 00:00:00
TRACK 02 AUDIO
TITLE "Messed Up Son"
PERFORMER "Enertia"
INDEX 01 05:14:04
TRACK 03 AUDIO
TITLE "Anything"
PERFORMER "Enertia"
INDEX 00 10:39:54
INDEX 01 10:41:40
TRACK 04 AUDIO
TITLE "Secrets"
PERFORMER "Enertia"
INDEX 01 16:04:72
TRACK 05 AUDIO
TITLE "Bleed"
PERFORMER "Enertia"
INDEX 00 21:05:52
INDEX 01 21:06:53
TRACK 06 AUDIO
TITLE "Not Alone"
PERFORMER "Enertia"
INDEX 01 25:34:59
TRACK 07 AUDIO
TITLE "Hole in the Head"
PERFORMER "Enertia"
INDEX 01 30:10:43
TRACK 08 AUDIO
TITLE "Clearer"
PERFORMER "Enertia"
INDEX 00 34:38:20
INDEX 01 34:39:64
TRACK 09 AUDIO
TITLE "Withstand"
PERFORMER "Enertia"
INDEX 01 38:44:10
TRACK 10 AUDIO
TITLE "The Sky is Falling"
PERFORMER "Enertia"
INDEX 01 43:40:58
TRACK 11 AUDIO
TITLE "Gun"
PERFORMER "Enertia"
INDEX 01 48:16:18

"Log"
Exact Audio Copy V0.99 prebeta 5 from 4. May 2009

Отчёт EAC об извлечении, выполненном 5. апреля 2013, 19:46

Enertia / Force

Дисковод: MATSHITADVD-RAM UJ8A0AS Adapter: 0 ID: 1

Режим чтения : Достоверность
Использование точного потока : Да
Отключение кэша аудио : Да
Использование указателей C2 : Нет

Коррекция смещения при чтении : 102
Способность читать области Lead-in и Lead-out : Нет
Заполнение пропущенных сэмплов тишиной : Да
Удаление блоков с тишиной в начале и конце : Нет
При вычислениях CRC использовались нулевые сэмплы : Да
Интерфейс : Встроенный Win32-интерфейс для Win NT/2000

Выходной формат : Пользовательский кодировщик
Выбранный битрейт : 1024 kBit/s
Качество : Высокий
Добавление ID3-тэга : Нет
Утилита сжатия : C:\Program Files\Exact Audio Copy\FLAC\FLAC.EXE
Дополнительные параметры : -6 -V -T "ARTIST=%a" -T "TITLE=%t" -T "ALBUM=%g" -T "DATE=%y" -T "TRACKNUMBER=%n" -T "GENRE=%m" -T "COMMENT=%e" %s -o %d


TOC извлечённого CD

Трек | Старт | Длительность | Начальный сектор | Конечный сектор
---------------------------------------------------------------------
1 | 0:00.00 | 5:14.04 | 0 | 23553
2 | 5:14.04 | 5:27.36 | 23554 | 48114
3 | 10:41.40 | 5:23.32 | 48115 | 72371
4 | 16:04.72 | 5:01.56 | 72372 | 95002
5 | 21:06.53 | 4:28.06 | 95003 | 115108
6 | 25:34.59 | 4:35.59 | 115109 | 135792
7 | 30:10.43 | 4:29.21 | 135793 | 155988
8 | 34:39.64 | 4:04.21 | 155989 | 174309
9 | 38:44.10 | 4:56.48 | 174310 | 196557
10 | 43:40.58 | 4:35.35 | 196558 | 217217
11 | 48:16.18 | 5:06.45 | 217218 | 240212


Характеристики диапазона извлечения и сообщения об ошибках

Выбранный диапазон

Имя файла C:\Users\эксперт\Music\Enertia - Force.wav

Пиковый уровень 98.8 %
Качество диапазона 100.0 %
CRC копии CB9F98E0
Копирование... OK

Ошибок не произошло


AccurateRip: сводка

Трек 1 точное извлечение (доверие 1) [142FF0D6]
Трек 2 точное извлечение (доверие 1) [1E5F791A]
Трек 3 точное извлечение (доверие 1) [2801751E]
Трек 4 точное извлечение (доверие 1) [828EABF7]
Трек 5 точное извлечение (доверие 1) [9112206F]
Трек 6 точное извлечение (доверие 1) [06EC5726]
Трек 7 точное извлечение (доверие 1) [678A8F91]
Трек 8 точное извлечение (доверие 1) [8ABB432A]
Трек 9 точное извлечение (доверие 1) [84EE3973]
Трек 10 точное извлечение (доверие 1) [0230BB05]
Трек 11 точное извлечение (доверие 1) [A9CCC90E]

Все треки извлечены точно

Конец отчёта


Force


Top
 Profile  
 
 
PostPosted: 13 May 2013 
ТрэшЭрос
User avatar
Joined: 18 Jul 2011
Posts: 2304
Lоcаtion: Гулькевичи
Age: 44
Name: Александр
Серёж, а двух ранних нема? :oops:

_________________
Thrash no trash!!!


Top
 Profile E-mail  
 
 
PostPosted: 13 May 2013 
Генеральный thrasher
User avatar
Joined: 03 Oct 2008
Posts: 3717
Lоcаtion: Ханты-Мансийский АО
Age: 44
Name: Сергей
Пока нет... :vic:


Top
 Profile  
 
 
PostPosted: 14 May 2013 
Хиппей (support team)
User avatar
Joined: 30 Jul 2007
Posts: 114041
Lоcаtion: Киев (Kyiv, UA)
Age: 46
Name: Andrey
:thanx:

mirror: F-Bit l iFolder l Narod l M-Cloud

_________________


Top
 Profile E-mail  
 
 
PostPosted: 15 May 2013 
Работнечег
User avatar
Joined: 28 Aug 2007
Posts: 5939
Lоcаtion: г. Москва
Age: 30
Name: Дима
Серёж, а двух ранних нема? :oops:

У меня есть) Нужно?
Серег спасибо за альбом, этого не было! :thanx:


Top
 Profile E-mail  
 
 
PostPosted: 16 May 2013 
ТрэшЭрос
User avatar
Joined: 18 Jul 2011
Posts: 2304
Lоcаtion: Гулькевичи
Age: 44
Name: Александр
church wrote:
Нужно?

А можно? :crazy:

_________________
Thrash no trash!!!


Top
 Profile E-mail  
 
 
PostPosted: 16 May 2013 
Работнечег
User avatar
Joined: 28 Aug 2007
Posts: 5939
Lоcаtion: г. Москва
Age: 30
Name: Дима
church wrote:
Нужно?

А можно? :crazy:

Да можно конечно, токо придеться подождать :fingal: никто же никуда не спешит :benya:


Top
 Profile E-mail  
 
 
PostPosted: 19 May 2013 
Хиппей (support team)
User avatar
Joined: 30 Jul 2007
Posts: 114041
Lоcаtion: Киев (Kyiv, UA)
Age: 46
Name: Andrey
church wrote:
Нужно?

А можно? :crazy:

Да можно конечно, токо придеться подождать :fingal: никто же никуда не спешит :benya:

Во-во, тем более само название группы шепчет :pardon:

_________________


Top
 Profile E-mail  
 
 
PostPosted: 23 Sep 2013 
Работнечег
User avatar
Joined: 28 Aug 2007
Posts: 5939
Lоcаtion: г. Москва
Age: 30
Name: Дима
Image

Year: 1996
Style: Heavy/Thrash Metal
Country: U.S.A.
Audio: Flac+Cue+Log+Scans
Size: 195 Mb
Label: Animated Insanity

Line-Up:
Scott Featherstone - Vcals
Roman Singleton - Guitars
Dave Stafford - Guitars
Joe Paciolla - Bass
Jeff Daley - Drums


Tracklist:
1. The Mirror 03:59
2. Child Now Lost 05:32
3. I Know Your Demons 04:42
4. Same Old Story 04:42
5. If I Were You 06:30

LOG
Exact Audio Copy V0.99 prebeta 5 from 4. May 2009

EAC extraction logfile from 23. September 2013, 18:59

Enertia / Law Of Three EP

Used drive : PIONEER DVD-RW DVR-116D Adapter: 0 ID: 0

Read mode : Secure
Utilize accurate stream : Yes
Defeat audio cache : Yes
Make use of C2 pointers : No

Read offset correction : 96
Overread into Lead-In and Lead-Out : No
Fill up missing offset samples with silence : Yes
Delete leading and trailing silent blocks : No
Null samples used in CRC calculations : Yes
Used interface : Native Win32 interface for Win NT & 2000

Used output format : User Defined Encoder
Selected bitrate : 32 kBit/s
Quality : High
Add ID3 tag : No
Command line compressor : C:\Program Files\Exact Audio Copy\Flac\flac.exe
Additional command line options : -6 -V %s


TOC of the extracted CD

Track | Start | Length | Start sector | End sector
---------------------------------------------------------
1 | 0:00.00 | 3:59.22 | 0 | 17946
2 | 3:59.22 | 5:32.65 | 17947 | 42911
3 | 9:32.12 | 4:42.28 | 42912 | 64089
4 | 14:14.40 | 4:42.11 | 64090 | 85250
5 | 18:56.51 | 6:30.26 | 85251 | 114526


Range status and errors

Selected range

Filename D:\Музыка\Lossless\Enertia - Law Of Three EP (1996)\Enertia - Law Of Three EP.wav

Peak level 100.0 %
Range quality 100.0 %
Copy CRC A3C14F67
Copy OK

No errors occurred


AccurateRip summary

Track 1 not present in database
Track 2 not present in database
Track 3 not present in database
Track 4 not present in database
Track 5 not present in database

None of the tracks are present in the AccurateRip database

End of status report

CUE
REM GENRE "Thrash Metal"
REM DATE 1996
REM DISCID 3905F705
REM COMMENT "ExactAudioCopy v0.99pb5"
PERFORMER "Enertia"
TITLE "Law Of Three EP"
FILE "Enertia - Law Of Three EP.flac" WAVE
TRACK 01 AUDIO
TITLE "The Mirror"
PERFORMER "Enertia"
INDEX 01 00:00:00
TRACK 02 AUDIO
TITLE "Child Now Lost"
PERFORMER "Enertia"
INDEX 00 03:58:59
INDEX 01 03:59:22
TRACK 03 AUDIO
TITLE "I Know Your Demons"
PERFORMER "Enertia"
INDEX 00 09:31:49
INDEX 01 09:32:12
TRACK 04 AUDIO
TITLE "Same Old Story"
PERFORMER "Enertia"
INDEX 00 14:14:27
INDEX 01 14:14:40
TRACK 05 AUDIO
TITLE "If I Were You"
PERFORMER "Enertia"
INDEX 01 18:56:51


Rusfolder.ru

Неплохой миник с некоторой проговой направленностью в некоторых песнях, как мне показалось. Трэша как такового нет, имхо. Скоростных трэков нет. Можно было бы обозвать как angry heavy metal :benya:


Top
 Profile E-mail  
 
 
PostPosted: 24 Sep 2013 
Хиппей (support team)
User avatar
Joined: 30 Jul 2007
Posts: 114041
Lоcаtion: Киев (Kyiv, UA)
Age: 46
Name: Andrey
:thanx:

mirror: iFolder l Narod l M-Cloud

_________________


Top
 Profile E-mail  
 
 
PostPosted: 24 Sep 2013 
Работнечег
User avatar
Joined: 28 Aug 2007
Posts: 5939
Lоcаtion: г. Москва
Age: 30
Name: Дима
Андрюх, токо тему наверное переименуй плиз)


Top
 Profile E-mail  
 
 
PostPosted: 24 Sep 2013 
Хиппей (support team)
User avatar
Joined: 30 Jul 2007
Posts: 114041
Lоcаtion: Киев (Kyiv, UA)
Age: 46
Name: Andrey
Ога =)
Только я еще группу не слушал :crazy:
church wrote:
angry heavy metal

Так и назвать? :dance:

_________________


Top
 Profile E-mail  
 
 
PostPosted: 24 Sep 2013 
ТрэшЭрос
User avatar
Joined: 18 Jul 2011
Posts: 2304
Lоcаtion: Гулькевичи
Age: 44
Name: Александр
Спасибо, Дима! :thanx: :true:

_________________
Thrash no trash!!!


Top
 Profile E-mail  
 
 
PostPosted: 24 Sep 2013 
Работнечег
User avatar
Joined: 28 Aug 2007
Posts: 5939
Lоcаtion: г. Москва
Age: 30
Name: Дима
Ога =)
Только я еще группу не слушал :crazy:
church wrote:
angry heavy metal

Так и назвать? :dance:

Ага, оставь пока так :smile: :smile:


Top
 Profile E-mail  
 
 
PostPosted: 19 Oct 2015 
Генеральный thrasher
User avatar
Joined: 03 Oct 2008
Posts: 3717
Lоcаtion: Ханты-Мансийский АО
Age: 44
Name: Сергей
Image

Year: 2014
Style:Heavy/Thrash Metal
Country:U.S.A.
Archive:Flac+Cue+Log+Scans
Size:469Mb+467Mb
Source:my CD
Label:Divebomb Records

CD 1:
Flashpoint - 1999
01. Victim Of Thought 04:52
02. Leave Me In Peace 05:24
03. Glitch 04:06
04. Crawling 03:19
05. Real 04:39
06. D.O.M. 04:46
07. Voices 04:12
08. Without End 06:23
09. What Hurts Me... 03:20
10. Right To Die 04:47
Bonus Tracks
11. Invisible 05:40
12. Cowboys From Hell 04:01

CD 2:
Momentum - 1997
01. Ripped Out 04:20
02. Dear God 04:07
03. And So You Fall 04:25
04. Six Weeks 04:52
05. Weight Of The World 04:24
06. You Know 03:44
07. Sever The Wicked 03:27
08. Walls 03:59
Law Of Three - 1996
09. The Mirror 03:59
10. Child Now Lost 05:33
11. I Know Your Demons 04:42
12. Same Old Story 04:42
13. If I Were You 06:30

"Cue 1"
REM GENRE "Thrash Metal"
REM DATE 2014
REM DISCID AF0D0A0C
REM COMMENT "ExactAudioCopy v0.99pb5"
PERFORMER "Enertia"
TITLE "Victim Of Thought CD 1"
FILE "Enertia - Victim Of Thought CD 1.flac" WAVE
TRACK 01 AUDIO
TITLE "Victim Of Thought"
PERFORMER "Enertia"
FLAGS DCP
INDEX 01 00:00:00
TRACK 02 AUDIO
TITLE "Leave Me In Peace"
PERFORMER "Enertia"
FLAGS DCP
INDEX 01 04:52:02
TRACK 03 AUDIO
TITLE "Glitch"
PERFORMER "Enertia"
FLAGS DCP
INDEX 01 10:16:11
TRACK 04 AUDIO
TITLE "Crawling"
PERFORMER "Enertia"
FLAGS DCP
INDEX 01 14:22:45
TRACK 05 AUDIO
TITLE "Real"
PERFORMER "Enertia"
FLAGS DCP
INDEX 01 17:41:47
TRACK 06 AUDIO
TITLE "D.O.M."
PERFORMER "Enertia"
FLAGS DCP
INDEX 01 22:21:46
TRACK 07 AUDIO
TITLE "Voices"
PERFORMER "Enertia"
FLAGS DCP
INDEX 01 27:08:22
TRACK 08 AUDIO
TITLE "Without End"
PERFORMER "Enertia"
FLAGS DCP
INDEX 01 31:20:56
TRACK 09 AUDIO
TITLE "What Hurts Me..."
PERFORMER "Enertia"
FLAGS DCP
INDEX 01 37:44:15
TRACK 10 AUDIO
TITLE "Right To Die"
PERFORMER "Enertia"
FLAGS DCP
INDEX 01 41:05:14
TRACK 11 AUDIO
TITLE "Invisible"
PERFORMER "Enertia"
FLAGS DCP
INDEX 00 45:52:30
INDEX 01 45:54:30
TRACK 12 AUDIO
TITLE "Cowboys From Hell"
PERFORMER "Enertia"
FLAGS DCP
INDEX 00 51:34:32
INDEX 01 51:36:32

"Cue 2"
REM GENRE "Thrash Metal"
REM DATE 2014
REM DISCID AE0DCD0D
REM COMMENT "ExactAudioCopy v0.99pb5"
PERFORMER "Enertia"
TITLE "Victim Of Thought CD 2"
FILE "Enertia - Victim Of Thought CD 2.flac" WAVE
TRACK 01 AUDIO
TITLE "Ripped Out"
PERFORMER "Enertia"
FLAGS DCP
INDEX 01 00:00:00
TRACK 02 AUDIO
TITLE "Dear God"
PERFORMER "Enertia"
FLAGS DCP
INDEX 01 04:20:56
TRACK 03 AUDIO
TITLE "And So You Fall"
PERFORMER "Enertia"
FLAGS DCP
INDEX 01 08:28:30
TRACK 04 AUDIO
TITLE "Six Weeks"
PERFORMER "Enertia"
FLAGS DCP
INDEX 01 12:53:62
TRACK 05 AUDIO
TITLE "Weight of the World"
PERFORMER "Enertia"
FLAGS DCP
INDEX 01 17:46:45
TRACK 06 AUDIO
TITLE "You Know"
PERFORMER "Enertia"
FLAGS DCP
INDEX 01 22:10:68
TRACK 07 AUDIO
TITLE "Sever The Wicked"
PERFORMER "Enertia"
FLAGS DCP
INDEX 01 25:55:49
TRACK 08 AUDIO
TITLE "Walls"
PERFORMER "Enertia"
FLAGS DCP
INDEX 01 29:23:42
TRACK 09 AUDIO
TITLE "The Mirror"
PERFORMER "Enertia"
FLAGS DCP
INDEX 00 33:23:20
INDEX 01 33:25:20
TRACK 10 AUDIO
TITLE "Child Now Lost"
PERFORMER "Enertia"
FLAGS DCP
INDEX 01 37:24:56
TRACK 11 AUDIO
TITLE "I Know Your Demons"
PERFORMER "Enertia"
FLAGS DCP
INDEX 01 42:57:61
TRACK 12 AUDIO
TITLE "Same Old Story"
PERFORMER "Enertia"
FLAGS DCP
INDEX 01 47:40:27
TRACK 13 AUDIO
TITLE "If I Were You"
PERFORMER "Enertia"
FLAGS DCP
INDEX 01 52:22:53

"Log 1"
Exact Audio Copy V0.99 prebeta 5 from 4. May 2009

Отчёт EAC об извлечении, выполненном 25. апреля 2015, 13:00

Enertia / Victim Of Thought CD 1

Дисковод: MATSHITADVD-RAM UJ8A0AS Adapter: 0 ID: 1

Режим чтения : Достоверность
Использование точного потока : Да
Отключение кэша аудио : Да
Использование указателей C2 : Нет

Коррекция смещения при чтении : 102
Способность читать области Lead-in и Lead-out : Нет
Заполнение пропущенных сэмплов тишиной : Да
Удаление блоков с тишиной в начале и конце : Нет
При вычислениях CRC использовались нулевые сэмплы : Да
Интерфейс : Встроенный Win32-интерфейс для Win NT/2000

Выходной формат : Пользовательский кодировщик
Выбранный битрейт : 1024 kBit/s
Качество : Высокий
Добавление ID3-тэга : Нет
Утилита сжатия : C:\Program Files\Exact Audio Copy\FLAC\FLAC.EXE
Дополнительные параметры : -6 -V -T "ARTIST=%a" -T "TITLE=%t" -T "ALBUM=%g" -T "DATE=%y" -T "TRACKNUMBER=%n" -T "GENRE=%m" -T "COMMENT=%e" %s -o %d


TOC извлечённого CD

Трек | Старт | Длительность | Начальный сектор | Конечный сектор
---------------------------------------------------------------------
1 | 0:00.00 | 4:52.02 | 0 | 21901
2 | 4:52.02 | 5:24.09 | 21902 | 46210
3 | 10:16.11 | 4:06.34 | 46211 | 64694
4 | 14:22.45 | 3:19.02 | 64695 | 79621
5 | 17:41.47 | 4:39.74 | 79622 | 100620
6 | 22:21.46 | 4:46.51 | 100621 | 122121
7 | 27:08.22 | 4:12.34 | 122122 | 141055
8 | 31:20.56 | 6:23.34 | 141056 | 169814
9 | 37:44.15 | 3:20.74 | 169815 | 184888
10 | 41:05.14 | 4:49.16 | 184889 | 206579
11 | 45:54.30 | 5:42.02 | 206580 | 232231
12 | 51:36.32 | 4:01.51 | 232232 | 250357


Характеристики диапазона извлечения и сообщения об ошибках

Выбранный диапазон

Имя файла C:\Users\эксперт\Music\Enertia - Victim Of Thought CD 1.wav

Пиковый уровень 100.0 %
Качество диапазона 100.0 %
CRC копии 655B8C57
Копирование... OK

Ошибок не произошло


AccurateRip: сводка

Трек 1 нет в базе данных
Трек 2 нет в базе данных
Трек 3 нет в базе данных
Трек 4 нет в базе данных
Трек 5 нет в базе данных
Трек 6 нет в базе данных
Трек 7 нет в базе данных
Трек 8 нет в базе данных
Трек 9 нет в базе данных
Трек 10 нет в базе данных
Трек 11 нет в базе данных
Трек 12 нет в базе данных

Ни одного трека нет в базе AccurateRip

Конец отчёта

"Log 2"
Exact Audio Copy V0.99 prebeta 5 from 4. May 2009

Отчёт EAC об извлечении, выполненном 25. апреля 2015, 14:13

Enertia / Victim Of Thought CD 2

Дисковод: MATSHITADVD-RAM UJ8A0AS Adapter: 0 ID: 1

Режим чтения : Достоверность
Использование точного потока : Да
Отключение кэша аудио : Да
Использование указателей C2 : Нет

Коррекция смещения при чтении : 102
Способность читать области Lead-in и Lead-out : Нет
Заполнение пропущенных сэмплов тишиной : Да
Удаление блоков с тишиной в начале и конце : Нет
При вычислениях CRC использовались нулевые сэмплы : Да
Интерфейс : Встроенный Win32-интерфейс для Win NT/2000

Выходной формат : Пользовательский кодировщик
Выбранный битрейт : 1024 kBit/s
Качество : Высокий
Добавление ID3-тэга : Нет
Утилита сжатия : C:\Program Files\Exact Audio Copy\FLAC\FLAC.EXE
Дополнительные параметры : -6 -V -T "ARTIST=%a" -T "TITLE=%t" -T "ALBUM=%g" -T "DATE=%y" -T "TRACKNUMBER=%n" -T "GENRE=%m" -T "COMMENT=%e" %s -o %d


TOC извлечённого CD

Трек | Старт | Длительность | Начальный сектор | Конечный сектор
---------------------------------------------------------------------
1 | 0:00.00 | 4:20.56 | 0 | 19555
2 | 4:20.56 | 4:07.49 | 19556 | 38129
3 | 8:28.30 | 4:25.32 | 38130 | 58036
4 | 12:53.62 | 4:52.58 | 58037 | 79994
5 | 17:46.45 | 4:24.23 | 79995 | 99817
6 | 22:10.68 | 3:44.56 | 99818 | 116673
7 | 25:55.49 | 3:27.68 | 116674 | 132266
8 | 29:23.42 | 4:01.53 | 132267 | 150394
9 | 33:25.20 | 3:59.36 | 150395 | 168355
10 | 37:24.56 | 5:33.05 | 168356 | 193335
11 | 42:57.61 | 4:42.41 | 193336 | 214526
12 | 47:40.27 | 4:42.26 | 214527 | 235702
13 | 52:22.53 | 6:30.41 | 235703 | 264993


Характеристики диапазона извлечения и сообщения об ошибках

Выбранный диапазон

Имя файла C:\Users\эксперт\Music\Enertia - Victim Of Thought CD 2.wav

Пиковый уровень 100.0 %
Качество диапазона 99.9 %
CRC копии A68DC24C
Копирование... OK

Ошибок не произошло


AccurateRip: сводка

Трек 1 нет в базе данных
Трек 2 нет в базе данных
Трек 3 нет в базе данных
Трек 4 нет в базе данных
Трек 5 нет в базе данных
Трек 6 нет в базе данных
Трек 7 нет в базе данных
Трек 8 нет в базе данных
Трек 9 нет в базе данных
Трек 10 нет в базе данных
Трек 11 нет в базе данных
Трек 12 нет в базе данных
Трек 13 нет в базе данных

Ни одного трека нет в базе AccurateRip


Victim Of Thought 1
Victim Of Thought 2


Top
 Profile  
 
 
PostPosted: 19 Oct 2015 
Прокъмитолист
User avatar
Joined: 12 Aug 2007
Posts: 6590
Lоcаtion: Санктъ-Петербуркъ
Age: 51
Name: Олекъ
приятный сюрприз. спасибо, Серёг! :thanx:

_________________
прокъметол - это музыко, от которово есть прок (ы)


Top
 Profile  
 
 
PostPosted: 19 Oct 2015 
Генеральный thrasher
User avatar
Joined: 03 Oct 2008
Posts: 3717
Lоcаtion: Ханты-Мансийский АО
Age: 44
Name: Сергей
Я так понимаю,Олег,что этот релиз только тебе и интересен. :smile:


Top
 Profile  
 
 
PostPosted: 19 Oct 2015 
Прокъмитолист
User avatar
Joined: 12 Aug 2007
Posts: 6590
Lоcаtion: Санктъ-Петербуркъ
Age: 51
Name: Олекъ
ну, еще не вечер ;)

_________________
прокъметол - это музыко, от которово есть прок (ы)


Top
 Profile  
 
 
PostPosted: 19 Oct 2015 
Генеральный thrasher
User avatar
Joined: 03 Oct 2008
Posts: 3717
Lоcаtion: Ханты-Мансийский АО
Age: 44
Name: Сергей
Надо бы и свежий альбомчик прикупить.


Top
 Profile  
 
 
PostPosted: 29 Oct 2015 
ТрэшЭрос
User avatar
Joined: 18 Jul 2011
Posts: 2304
Lоcаtion: Гулькевичи
Age: 44
Name: Александр
thorbeorn wrote:
этот релиз только тебе и интересен

А вот и я сюда добрался - забираю компиляху. Спасибо, Серёга! :thanx: :true:

_________________
Thrash no trash!!!


Top
 Profile E-mail  
 
Display posts from previous:  Sort by  
Post new topic Reply to topic  [ 31 posts ]  Go to page 1, 2  Next

All times are UTC + 3 hours


Who is online

Users browsing this forum: No registered users and 1 guest


You cannot post new topics in this forum
You cannot reply to topics in this forum
You cannot edit your posts in this forum
You cannot delete your posts in this forum
You cannot post attachments in this forum

Search for:
Яндекс.Метрика
Powered by phpBB © 2000, 2002, 2005, 2007 phpBB Group