\m/ 80's metal \m/

Информационно-аналитический форум "80 см пыли" (In Search We Trust) "У нас никто никуда не спешит"
Me For You - http://me-4u.com
It is currently 19 Apr 2019

All times are UTC + 3 hours

Spoiler
Chat - temporary registration for foreign users (please leave your application here)







Post new topic Reply to topic  [ 5 posts ] 
Author Message
 
PostPosted: 07 Jan 2013 
Работнечег
User avatar
Joined: 28 Aug 2007
Posts: 5801
Lоcаtion: г. Москва
Age: 30
Name: Дима
Image

Band: Exocet
Album: Confusion
Year: 1995
Label: Massacre Records
Genre: Thrash/Death Metal
Coutry: Germany
Format: Flac + Log + Cue + Covers
Size: 335 Mb

Line-Up:
Tom Merker - Bass
Steffen "Keule" Kolditz - Drums (Distrust)
Stephan "Hemmschuh" Hämmerling - Guitars
Patrick Stein - Guitars
Dirk "Mühle" Mylius - Vocals (Demoria)


Tracklist:
1. I Kill Now 02:39
2. Commercial Overkill 03:28
3. The Martyr 04:14
4. Abyss Of Sexuality 04:48
5. Chemical Profit War 03:47
6. In Hate 03:11
7. Apocalyptic Visions 05:42
8. Retaliation 03:40
9. My Nuclear Safety 04:08
10. Unborn 03:47
11. More Bass 00:50

LOG
Exact Audio Copy V0.99 prebeta 5 from 4. May 2009

EAC extraction logfile from 7. January 2013, 14:16

Exocet / Confusion

Used drive : PIONEER DVD-RW DVR-116D Adapter: 0 ID: 0

Read mode : Secure
Utilize accurate stream : Yes
Defeat audio cache : Yes
Make use of C2 pointers : No

Read offset correction : 96
Overread into Lead-In and Lead-Out : No
Fill up missing offset samples with silence : Yes
Delete leading and trailing silent blocks : No
Null samples used in CRC calculations : Yes
Used interface : Native Win32 interface for Win NT & 2000

Used output format : User Defined Encoder
Selected bitrate : 32 kBit/s
Quality : High
Add ID3 tag : No
Command line compressor : C:\Program Files\Exact Audio Copy\Flac\flac.exe
Additional command line options : -6 -V %s


TOC of the extracted CD

Track | Start | Length | Start sector | End sector
---------------------------------------------------------
1 | 0:00.00 | 4:02.15 | 0 | 18164
2 | 4:02.15 | 2:39.22 | 18165 | 30111
3 | 6:41.37 | 3:28.48 | 30112 | 45759
4 | 10:10.10 | 4:14.47 | 45760 | 64856
5 | 14:24.57 | 4:48.33 | 64857 | 86489
6 | 19:13.15 | 3:47.47 | 86490 | 103561
7 | 23:00.62 | 3:11.33 | 103562 | 117919
8 | 26:12.20 | 5:43.17 | 117920 | 143661
9 | 31:55.37 | 3:40.20 | 143662 | 160181
10 | 35:35.57 | 4:08.20 | 160182 | 178801
11 | 39:44.02 | 3:47.48 | 178802 | 195874
12 | 43:31.50 | 0:57.12 | 195875 | 200161


Range status and errors

Selected range

Filename D:\Музыка\Lossless\Exocet - Confusion (1995)\Exocet - Confusion.wav

Peak level 99.0 %
Range quality 99.9 %
Copy CRC E0840A39
Copy OK

No errors occurred


AccurateRip summary

Track 1 not present in database
Track 2 not present in database
Track 3 not present in database
Track 4 not present in database
Track 5 not present in database
Track 6 not present in database
Track 7 not present in database
Track 8 not present in database
Track 9 not present in database
Track 10 not present in database
Track 11 not present in database
Track 12 not present in database

None of the tracks are present in the AccurateRip database

End of status report

CUE
REM GENRE "Thrash/Death Metal"
REM DATE 1995
REM DISCID 990A6C0C
REM COMMENT "ExactAudioCopy v0.99pb5"
PERFORMER "Exocet"
TITLE "Confusion"
FILE "Exocet - Confusion.flac" WAVE
TRACK 01 AUDIO
TITLE "Hypocrite"
PERFORMER "Exocet"
INDEX 01 00:00:00
TRACK 02 AUDIO
TITLE "I Kill Now"
PERFORMER "Exocet"
INDEX 00 04:00:40
INDEX 01 04:02:15
TRACK 03 AUDIO
TITLE "Commercial Overkill"
PERFORMER "Exocet"
INDEX 00 06:40:37
INDEX 01 06:41:37
TRACK 04 AUDIO
TITLE "The Martyr"
PERFORMER "Exocet"
INDEX 00 10:08:37
INDEX 01 10:10:10
TRACK 05 AUDIO
TITLE "Abyss Of Sexuality"
PERFORMER "Exocet"
INDEX 00 14:23:02
INDEX 01 14:24:57
TRACK 06 AUDIO
TITLE "Chemical Profit"
PERFORMER "Exocet"
INDEX 00 19:11:60
INDEX 01 19:13:15
TRACK 07 AUDIO
TITLE "In hate"
PERFORMER "Exocet"
INDEX 00 22:59:22
INDEX 01 23:00:62
TRACK 08 AUDIO
TITLE "Apocalyptic Visions"
PERFORMER "Exocet"
INDEX 00 26:10:47
INDEX 01 26:12:20
TRACK 09 AUDIO
TITLE "Retaliation"
PERFORMER "Exocet"
INDEX 00 31:53:50
INDEX 01 31:55:37
TRACK 10 AUDIO
TITLE "My Nuclear Safety"
PERFORMER "Exocet"
INDEX 00 35:33:57
INDEX 01 35:35:57
TRACK 11 AUDIO
TITLE "Unborn"
PERFORMER "Exocet"
INDEX 00 39:42:20
INDEX 01 39:44:02
TRACK 12 AUDIO
TITLE "More Bass"
PERFORMER "Exocet"
INDEX 00 43:30:32
INDEX 01 43:31:50

Spectrum
Image


Exocet - Apocalyptic Visions | +
phpBB [youtube]

Exocet - The Martyr | +
phpBB [youtube]

Exocet - More Bass | +
phpBB [youtube]


Достойный релиз! Мои фавориты The Martyr, More Bass и Abyss Of Sexuality :true:

Narod.Ru


Top
 Profile E-mail  
 
 
PostPosted: 09 Jan 2013 
Генеральный thrasher
User avatar
Joined: 03 Oct 2008
Posts: 3695
Lоcаtion: Ханты-Мансийский АО
Age: 44
Name: Сергей
:thanx: :losik:


Top
 Profile  
 
 
PostPosted: 09 Jan 2013 
Персональный статус
User avatar
Joined: 22 Oct 2011
Posts: 352
Lоcаtion: Moscow
Age: 60
Name: Серёжа
:thanx:


Top
 Profile E-mail  
 
 
PostPosted: 23 Jul 2013 
Хиппей (support team)
User avatar
Joined: 30 Jul 2007
Posts: 111685
Lоcаtion: Киев (Kyiv, UA)
Age: 45
Name: Andrey
:thanx:

mirror: F-Bit l Narod

_________________


Top
 Profile E-mail  
 
 
PostPosted: 24 Jul 2013 
Хиппей (support team)
User avatar
Joined: 30 Jul 2007
Posts: 111685
Lоcаtion: Киев (Kyiv, UA)
Age: 45
Name: Andrey
Хорош альбом. Помню его еще на кассетке.
Трэша здесь совсем мизер, а вот дэз-метала начала 90-х валом. Вот только жаль скоростных вещей мизер :(

_________________


Top
 Profile E-mail  
 
Display posts from previous:  Sort by  
Post new topic Reply to topic  [ 5 posts ] 

All times are UTC + 3 hours


Who is online

Users browsing this forum: No registered users and 1 guest


You cannot post new topics in this forum
You cannot reply to topics in this forum
You cannot edit your posts in this forum
You cannot delete your posts in this forum
You cannot post attachments in this forum

Search for:
Яндекс.Метрика
Powered by phpBB © 2000, 2002, 2005, 2007 phpBB Group