\m/ 80's metal \m/

Информационно-аналитический форум "80 см пыли" (In Search We Trust) "У нас никто никуда не спешит"
Железнодорожная биржа - RailAgent
It is currently 14 Aug 2018

All times are UTC + 3 hours

Spoiler
Chat - temporary registration for foreign users (please leave your application here)







Post new topic Reply to topic  [ 7 posts ] 
Author Message
 
PostPosted: 14 Oct 2012 
ТрэшЭрос
User avatar
Joined: 18 Jul 2011
Posts: 2296
Lоcаtion: Гулькевичи
Age: 43
Name: Александр
Encryption - Perishing Black Light

Image

Год: 2000
Стиль: Thrash / Progressive / Power Metal
Страна: Germany (Dachsbach, Bavaria)
Формат: FLAC (image + cue), log, covers
Размер: 369 mb
Источник: ХЗ (где-то в Сети)
Скачать: Народ

Image

Трэклист:
1. Perishing Black Light 06:20
2. Lambda Core 06:59
3. All Philistines 05:18
4. The Inmost Dance 05:53
5. Conquering the Night 06:18
6. Autumn Harvest 13:15
Total playing time: 44:03

Log
Exact Audio Copy V0.99 prebeta 5 from 4. May 2009

EAC extraction logfile from 18. July 2010, 9:45

Encryption / Perishing Black Light

Used drive : TSSTcorpCDDVDW SH-S203D Adapter: 1 ID: 1

Read mode : Secure
Utilize accurate stream : Yes
Defeat audio cache : Yes
Make use of C2 pointers : No

Read offset correction : 6
Overread into Lead-In and Lead-Out : No
Fill up missing offset samples with silence : Yes
Delete leading and trailing silent blocks : No
Null samples used in CRC calculations : Yes
Used interface : Native Win32 interface for Win NT & 2000

Used output format : Internal WAV Routines
Sample format : 44.100 Hz; 16 Bit; Stereo


TOC of the extracted CD

Track | Start | Length | Start sector | End sector
---------------------------------------------------------
1 | 0:00.00 | 6:20.45 | 0 | 28544
2 | 6:20.45 | 6:58.31 | 28545 | 59925
3 | 13:19.01 | 5:18.32 | 59926 | 83807
4 | 18:37.33 | 5:53.10 | 83808 | 110292
5 | 24:30.43 | 6:18.22 | 110293 | 138664
6 | 30:48.65 | 13:14.67 | 138665 | 198281


Range status and errors

Selected range

Filename D:\На телефон\НОВОЕ\Encryption - Perishing Black Light.wav

Peak level 98.8 %
Range quality 100.0 %
Copy CRC EE506AD1
Copy OK

No errors occurred


AccurateRip summary

Track 1 not present in database
Track 2 not present in database
Track 3 not present in database
Track 4 not present in database
Track 5 not present in database
Track 6 not present in database

None of the tracks are present in the AccurateRip database

End of status report

Cue
REM GENRE "Thrash Metal"
REM DATE 2000
REM SOURCE "headbangers.nnm.ru"
REM DISCID 400A5306
REM COMMENT "ExactAudioCopy v0.99pb5"
PERFORMER "Encryption"
TITLE "Perishing Black Light"
FILE "Encryption - Perishing Black Light.flac" WAVE
TRACK 01 AUDIO
TITLE "Perishing Black Light"
PERFORMER "Encryption"
INDEX 01 00:00:00
TRACK 02 AUDIO
TITLE "Lambda Core"
PERFORMER "Encryption"
INDEX 01 06:20:45
TRACK 03 AUDIO
TITLE "All Philistines"
PERFORMER "Encryption"
INDEX 01 13:19:01
TRACK 04 AUDIO
TITLE "The Inmost Dance"
PERFORMER "Encryption"
INDEX 01 18:37:33
TRACK 05 AUDIO
TITLE "Conquering The Night"
PERFORMER "Encryption"
INDEX 01 24:30:43
TRACK 06 AUDIO
TITLE "Autumn Harvest"
PERFORMER "Encryption"
INDEX 01 30:48:65

Image

Состав:
Norbert Hartmann - vocal, back-vocal
Stefan Muller - guitar, back-vocal
Christian Klein - guitar, keys, back-vocal
Oliver Göß - bass guitar
Johannes Klein (R.I.P. 2006) - drums, back-vocal

Guests:
Manfred Herzog - guitar, back-vocal
Timo Lechner - keys
Michael Klein (1) - back-vocal

Produced by Encryption.

Офисайт
Myspace

Image

_________________
Thrash no trash!!!


Top
 Profile E-mail  
 
 
PostPosted: 17 Oct 2012 
Работнечег
User avatar
Joined: 28 Aug 2007
Posts: 5398
Lоcаtion: г. Москва
Age: 29
Name: Дима
Пасибо, послушаю, пока диск не пришёл :thanx:


Top
 Profile E-mail  
 
 
PostPosted: 13 Oct 2014 
Персональный статус
Joined: 30 Aug 2008
Posts: 327
Lоcаtion: Львов
Age: 45
Name: .Алексей
БОЛЬШАЯ ПРОСЬБА ,ОБНОВИТЬ ССЫЛЬ :thanx:


Top
 Profile E-mail  
 
 
PostPosted: 13 Oct 2014 
Хиппей (support team)
User avatar
Joined: 30 Jul 2007
Posts: 105571
Lоcаtion: Киев (Kyiv, UA)
Age: 45
Name: Andrey
:thanx:

http://forum.darksage.ru/forum/80-9306- ... 1350163366

mirror: M-Cloud l Narod

_________________


Top
 Profile E-mail  
 
 
PostPosted: 14 Oct 2014 
Хиппей (support team)
User avatar
Joined: 30 Jul 2007
Posts: 105571
Lоcаtion: Киев (Kyiv, UA)
Age: 45
Name: Andrey
Ой :shok: Чего это было? :crazy:
Послушал альбом.
Какой павер? Какой прог? Где трэш?
Это ж кукольная группа какая-то, исполняющая троллевые фолк-песенки :esel:

_________________


Top
 Profile E-mail  
 
 
PostPosted: 17 Oct 2014 
ТрэшЭрос
User avatar
Joined: 18 Jul 2011
Posts: 2296
Lоcаtion: Гулькевичи
Age: 43
Name: Александр
Scatterbrain wrote:
Где

4 piece German band performing a melodic and fast metal in a quite traditional German way, but with some Scandinavian influences as well.
:pardon:

_________________
Thrash no trash!!!


Top
 Profile E-mail  
 
 
PostPosted: 17 Oct 2014 
Хиппей (support team)
User avatar
Joined: 30 Jul 2007
Posts: 105571
Lоcаtion: Киев (Kyiv, UA)
Age: 45
Name: Andrey
Во-во, 4 писа исполняют мелодик метол с инфляциями скандинавскими.
И никакого паверу или трэшу :pardon:

_________________


Top
 Profile E-mail  
 
Display posts from previous:  Sort by  
Post new topic Reply to topic  [ 7 posts ] 

All times are UTC + 3 hours


Who is online

Users browsing this forum: No registered users and 1 guest


You cannot post new topics in this forum
You cannot reply to topics in this forum
You cannot edit your posts in this forum
You cannot delete your posts in this forum
You cannot post attachments in this forum

Search for:
Яндекс.Метрика
Powered by phpBB © 2000, 2002, 2005, 2007 phpBB Group