\m/ 80's metal \m/

Информационно-аналитический форум "80 см пыли" (In Search We Trust) "У нас никто никуда не спешит"
Me For You - http://me-4u.com
It is currently 16 Feb 2019

All times are UTC + 3 hours

Spoiler
Chat - temporary registration for foreign users (please leave your application here)







Post new topic Reply to topic  [ 3 posts ] 
Author Message
 
PostPosted: 29 May 2012 
Зарегился вот...
Joined: 05 Oct 2011
Posts: 5
Lоcаtion: Краснодар
Name: Семен
Image
Исполнитель: Europe
Альбом: Start From The Dark
Год выхода альбома: 2004
Год выпуска диска: 2004
Страна-производитель диска: Япония
Издатель (лейбл): Victor Entertainment Inc. Japan
Продолжительность: 59:39
Формат: FLAC/log/cue/full artwork + bonus Video "Start From The Dark"
Tracklist:
01 - Got To Have Faith [03:10]
02 - Start from the Dark [04:12]
03 - Flames [03:55]
04 - Hero [04:15]
05 - Wake Up Call [04:14]
06 - Reason [04:37]
07 - Song no.12 [04:09]
08 - Roll With You [04:30]
09 - Sucker [03:42]
10 - Spirit of the Underdog [04:25]
11 - America [03:35]
12 - Settle For Love [03:55]
13 - Seven Doors Hotel [live at Sweden Rock-Festival 12th June 04] [06:27]
14 - Wings Of Tomorrow [live at Sweden Rock-Festival 12th June 04] [04:26]
"Лог создания рипа"
Exact Audio Copy V1.0 beta 2 from 29. April 2011

EAC extraction logfile from 26. October 2011, 16:03

Europe / Start From The Dark [Japan VICP-62832]

Used drive : Optiarc DVD RW AD-5260S Adapter: 1 ID: 1

Read mode : Secure
Utilize accurate stream : Yes
Defeat audio cache : Yes
Make use of C2 pointers : No

Read offset correction : 48
Overread into Lead-In and Lead-Out : No
Fill up missing offset samples with silence : Yes
Delete leading and trailing silent blocks : No
Null samples used in CRC calculations : Yes
Used interface : Installed external ASPI interface

Used output format : Internal WAV Routines
Sample format : 44.100 Hz; 16 Bit; Stereo

TOC of the extracted CD

Track | Start | Length | Start sector | End sector
---------------------------------------------------------
1 | 0:00.00 | 3:10.72 | 0 | 14321
2 | 3:10.72 | 4:12.33 | 14322 | 33254
3 | 7:23.30 | 3:55.45 | 33255 | 50924
4 | 11:19.00 | 4:15.30 | 50925 | 70079
5 | 15:34.30 | 4:14.57 | 70080 | 89186
6 | 19:49.12 | 4:37.28 | 89187 | 109989
7 | 24:26.40 | 4:09.72 | 109990 | 128736
8 | 28:36.37 | 4:30.13 | 128737 | 148999
9 | 33:06.50 | 3:42.12 | 149000 | 165661
10 | 36:48.62 | 4:25.58 | 165662 | 185594
11 | 41:14.45 | 3:35.20 | 185595 | 201739
12 | 44:49.65 | 3:55.30 | 201740 | 219394
13 | 48:45.20 | 6:27.70 | 219395 | 248489
14 | 55:13.15 | 4:26.10 | 248490 | 268449
15 | 62:11.25 | 12:34.11 | 279850 | 336410

Range status and errors

Selected range

Filename D:\Europe - Start From The Dark [Japan VICP-62832].wav

Peak level 99.7 %
Extraction speed 4.2 X
Range quality 99.9 %
Test CRC FF7C9430
Copy CRC FF7C9430
Copy OK

No errors occurred

AccurateRip summary

Track 1 accurately ripped (confidence 3) [B37B709E] (AR v1)
Track 2 accurately ripped (confidence 3) [AF050725] (AR v1)
Track 3 accurately ripped (confidence 3) [CB6C5BAB] (AR v1)
Track 4 accurately ripped (confidence 3) [4A1AF60B] (AR v1)
Track 5 accurately ripped (confidence 3) [70577962] (AR v1)
Track 6 accurately ripped (confidence 3) [CFB3640F] (AR v1)
Track 7 accurately ripped (confidence 3) [6D65D542] (AR v1)
Track 8 accurately ripped (confidence 3) [C5EEC50F] (AR v1)
Track 9 accurately ripped (confidence 3) [661CC7EC] (AR v1)
Track 10 accurately ripped (confidence 3) [1DBB429D] (AR v1)
Track 11 accurately ripped (confidence 3) [3C1BC1D5] (AR v1)
Track 12 accurately ripped (confidence 3) [5B18A7B4] (AR v1)
Track 13 accurately ripped (confidence 3) [666772FA] (AR v1)
Track 14 accurately ripped (confidence 3) [A8448DEA] (AR v1)

All tracks accurately ripped

End of status report

==== Log checksum 5A17F1452E4A43453F4F12FB12CB5B92471D9536DBF8B2EDEBC677A135B9F310 ====

Содержание индексной карты (.cue
REM GENRE "Hard Rock"
REM DATE 2004
REM DISCID E011850F
REM COMMENT "ExactAudioCopy v1.0b2"
CATALOG 4988002464418
PERFORMER "Europe"
TITLE "Start From The Dark [VICP-62832]"
FILE "Europe - Start From The Dark [VICP-62832].flac" WAVE
TRACK 01 AUDIO
TITLE "Got To Have Faith"
PERFORMER "Europe"
ISRC SEWEK0400101
INDEX 01 00:00:00
TRACK 02 AUDIO
TITLE "Start from the Dark"
PERFORMER "Europe"
ISRC SEWEK0400102
INDEX 00 03:08:10
INDEX 01 03:10:72
TRACK 03 AUDIO
TITLE "Flames"
PERFORMER "Europe"
ISRC SEWEK0400103
INDEX 01 07:23:30
TRACK 04 AUDIO
TITLE "Hero"
PERFORMER "Europe"
ISRC SEWEK0400104
INDEX 00 11:16:42
INDEX 01 11:19:00
TRACK 05 AUDIO
TITLE "Wake Up Call"
PERFORMER "Europe"
ISRC SEWEK0400105
INDEX 01 15:34:30
TRACK 06 AUDIO
TITLE "Reason"
PERFORMER "Europe"
ISRC SEWEK0400106
INDEX 01 19:49:12
TRACK 07 AUDIO
TITLE "Song no.12"
PERFORMER "Europe"
ISRC SEWEK0400107
INDEX 00 24:25:20
INDEX 01 24:26:40
TRACK 08 AUDIO
TITLE "Roll With You"
PERFORMER "Europe"
ISRC SEWEK0400108
INDEX 00 28:34:17
INDEX 01 28:36:37
TRACK 09 AUDIO
TITLE "Sucker"
PERFORMER "Europe"
ISRC SEWEK0400109
INDEX 00 33:04:15
INDEX 01 33:06:50
TRACK 10 AUDIO
TITLE "Spirit of the Underdog"
PERFORMER "Europe"
ISRC SEWEK0400110
INDEX 00 36:47:52
INDEX 01 36:48:62
TRACK 11 AUDIO
TITLE "America"
PERFORMER "Europe"
ISRC SEWEK0400111
INDEX 01 41:14:45
TRACK 12 AUDIO
TITLE "Settle For Love"
PERFORMER "Europe"
ISRC SEWEK0400112
INDEX 00 44:48:62
INDEX 01 44:49:65
TRACK 13 AUDIO
TITLE "Seven Doors Hotel [live at Sweden Rock-Festival 12th June 04]"
PERFORMER "Europe"
INDEX 00 48:39:47
INDEX 01 48:45:20
TRACK 14 AUDIO
TITLE "Wings Of Tomorrow [live at Sweden Rock-Festival 12th June 04]"
PERFORMER "Europe"
INDEX 01 55:13:15

Cобственный рип с оригинального диска.
Размер: 583 мб
Narod
Если нужны другие издания дисков этой группы - обращайтесь ко мне.


Top
 Profile E-mail  
 
 
PostPosted: 19 Jun 2012 
***


Last edited by Вася_металлист_2012 on 14 Dec 2012, edited 1 time in total.

Top
  
 
 
PostPosted: 07 Jul 2012 
Хиппей (support team)
User avatar
Joined: 30 Jul 2007
Posts: 110281
Lоcаtion: Киев (Kyiv, UA)
Age: 45
Name: Andrey
:thanx:

_________________


Top
 Profile E-mail  
 
Display posts from previous:  Sort by  
Post new topic Reply to topic  [ 3 posts ] 

All times are UTC + 3 hours


Who is online

Users browsing this forum: No registered users and 1 guest


You cannot post new topics in this forum
You cannot reply to topics in this forum
You cannot edit your posts in this forum
You cannot delete your posts in this forum
You cannot post attachments in this forum

Search for:
Яндекс.Метрика
Powered by phpBB © 2000, 2002, 2005, 2007 phpBB Group