\m/ 80's metal \m/

Информационно-аналитический форум "80 см пыли" (In Search We Trust) "У нас никто никуда не спешит"
Me For You - http://me-4u.com
It is currently 19 Aug 2019

All times are UTC + 3 hours

Spoiler
Chat - temporary registration for foreign users (please leave your application here)







Post new topic Reply to topic  [ 4 posts ] 
Author Message
 
PostPosted: 18 Feb 2012 
Генеральный thrasher
User avatar
Joined: 03 Oct 2008
Posts: 3717
Lоcаtion: Ханты-Мансийский АО
Age: 44
Name: Сергей
Image

Year:2008
Style:Thrash Metal
Country:China
Audio:Flac+Cue+Log+Scans
Size:304Mb
Label:Area Death Productions

Line-Up:
Qiu Jianhua - guitars
Zeng Kaifeng - guitars
Tan Chong - bass, vocals
Zhong Ran - drums

Tracklist:
1. On The Road Of Death
2. Conflict
3. Slaaaaaayer!!!
4. Holocaust
5. Storm
6. Rescue Me
7. Fire Fire
8. Collapse
9. Keep Fighting

Cue
REM GENRE "Thrash Metal"
REM DATE 2008
REM DISCID 73098C09
REM COMMENT "ExactAudioCopy v0.99pb5"
PERFORMER "Explosicum"
TITLE "Conflict"
FILE "Explosicum - Conflict.flac" WAVE
TRACK 01 AUDIO
TITLE "On The Road Of Death"
PERFORMER "Explosicum"
INDEX 01 00:00:00
TRACK 02 AUDIO
TITLE "Conflict"
PERFORMER "Explosicum"
INDEX 00 03:41:07
INDEX 01 03:43:07
TRACK 03 AUDIO
TITLE "Slaaaaaayer!!!"
PERFORMER "Explosicum"
INDEX 00 08:07:39
INDEX 01 08:09:39
TRACK 04 AUDIO
TITLE "Holocaust"
PERFORMER "Explosicum"
INDEX 00 11:43:53
INDEX 01 11:45:53
TRACK 05 AUDIO
TITLE "Storm"
PERFORMER "Explosicum"
INDEX 00 16:44:41
INDEX 01 16:46:41
TRACK 06 AUDIO
TITLE "Rescue Me"
PERFORMER "Explosicum"
INDEX 00 20:41:51
INDEX 01 20:43:51
TRACK 07 AUDIO
TITLE "Fire Fire"
PERFORMER "Explosicum"
INDEX 00 26:08:19
INDEX 01 26:10:19
TRACK 08 AUDIO
TITLE "Collapse"
PERFORMER "Explosicum"
INDEX 00 30:55:58
INDEX 01 30:57:58
TRACK 09 AUDIO
TITLE "Keep Fighting"
PERFORMER "Explosicum"
INDEX 00 36:13:61
INDEX 01 36:15:61


Log
Exact Audio Copy V0.99 prebeta 5 from 4. May 2009

Отчёт EAC об извлечении, выполненном 16. февраля 2012, 14:49

Explosicum / Conflict

Дисковод: TSSTcorpCDDVDW SH-S202N Adapter: 0 ID: 1

Режим чтения : Достоверность
Использование точного потока : Да
Отключение кэша аудио : Да
Использование указателей C2 : Нет

Коррекция смещения при чтении : 6
Способность читать области Lead-in и Lead-out : Нет
Заполнение пропущенных сэмплов тишиной : Да
Удаление блоков с тишиной в начале и конце : Нет
При вычислениях CRC использовались нулевые сэмплы : Да
Интерфейс : Встроенный Win32-интерфейс для Win NT/2000

Выходной формат : Пользовательский кодировщик
Выбранный битрейт : 768 kBit/s
Качество : Высокий
Добавление ID3-тэга : Нет
Утилита сжатия : C:\Program Files\Exact Audio Copy\FLAC\FLAC.EXE
Дополнительные параметры : -6 -V -T "ARTIST=%a" -T "TITLE=%t" -T "ALBUM=%g" -T "DATE=%y" -T "TRACKNUMBER=%n" -T "GENRE=%m" -T "COMMENT=%e" %s -o %d


TOC извлечённого CD

Трек | Старт | Длительность | Начальный сектор | Конечный сектор
---------------------------------------------------------------------
1 | 0:00.00 | 3:43.07 | 0 | 16731
2 | 3:43.07 | 4:26.32 | 16732 | 36713
3 | 8:09.39 | 3:36.14 | 36714 | 52927
4 | 11:45.53 | 5:00.63 | 52928 | 75490
5 | 16:46.41 | 3:57.10 | 75491 | 93275
6 | 20:43.51 | 5:26.43 | 93276 | 117768
7 | 26:10.19 | 4:47.39 | 117769 | 139332
8 | 30:57.58 | 5:18.03 | 139333 | 163185
9 | 36:15.61 | 4:28.54 | 163186 | 183339


Характеристики диапазона извлечения и сообщения об ошибках

Выбранный диапазон

Имя файла D:\Lossless Music\Explosicum - Conflict.wav

Пиковый уровень 98.8 %
Качество диапазона 99.9 %
CRC копии 2EEB276B
Копирование... OK

Ошибок не произошло


AccurateRip: сводка

Трек 1 нет в базе данных
Трек 2 нет в базе данных
Трек 3 нет в базе данных
Трек 4 нет в базе данных
Трек 5 нет в базе данных
Трек 6 нет в базе данных
Трек 7 нет в базе данных
Трек 8 нет в базе данных
Трек 9 нет в базе данных

Ни одного трека нет в базе AccurateRip

Конец отчёта


Conflict


Top
 Profile  
 
 
PostPosted: 18 Apr 2012 
***


Last edited by Вася_металлист_2012 on 14 Dec 2012, edited 1 time in total.

Top
  
 
 
PostPosted: 20 Apr 2012 
труъ антисионист
User avatar
Joined: 01 Aug 2007
Posts: 4544
Lоcаtion: Откуда и большинство из нас
Age: 38
Name: Дядя Вова
Кстати довольно мощный альбом. Старая школа на высоте :true:

_________________
Image
Image


Top
 Profile  
 
 
PostPosted: 22 Apr 2012 
Хиппей (support team)
User avatar
Joined: 30 Jul 2007
Posts: 113993
Lоcаtion: Киев (Kyiv, UA)
Age: 46
Name: Andrey
:thanx:

mirror: MultiUp l Narod

_________________


Top
 Profile E-mail  
 
Display posts from previous:  Sort by  
Post new topic Reply to topic  [ 4 posts ] 

All times are UTC + 3 hours


Who is online

Users browsing this forum: No registered users and 2 guests


You cannot post new topics in this forum
You cannot reply to topics in this forum
You cannot edit your posts in this forum
You cannot delete your posts in this forum
You cannot post attachments in this forum

Search for:
Яндекс.Метрика
Powered by phpBB © 2000, 2002, 2005, 2007 phpBB Group