\m/ 80's metal \m/

Информационно-аналитический форум "80 см пыли" (In Search We Trust) "У нас никто никуда не спешит"
Me For You - http://me-4u.com
It is currently 27 May 2019

All times are UTC + 3 hours

Spoiler
Chat - temporary registration for foreign users (please leave your application here)







Post new topic Reply to topic  [ 21 posts ]  Go to page 1, 2  Next
Author Message
 
PostPosted: 29 Aug 2011 
Я набрал 1000 сообщений!
Joined: 12 Dec 2008
Posts: 1062
Lоcаtion: BULGARIA
Age: 40
Name: DIMITЪR
Drive-Characters in Time(1988)

Image

Category: Heavy metal /Hard Rock
Year: 1988
Label: Rhino/Rampage
Catalog Number: R2 70839

1. The Phoenix
2. Kamikaze
3. Stormtrooper
4. Heroes Road
5. Snake Eyes
6. Eternal Mercenary
7. The Entity
8. Sinister Minister
9. Forever and a Day
10. I Need the Nights


Top
 Profile  
 
 
PostPosted: 30 Aug 2011 
Хиппей (support team)
User avatar
Joined: 30 Jul 2007
Posts: 112855
Lоcаtion: Киев (Kyiv, UA)
Age: 45
Name: Andrey
И снова из списка Speedyk'а альбом. Когда-то лось будет здесь :pardon:

_________________


Top
 Profile E-mail  
 
 
PostPosted: 30 Aug 2011 
консэрваторъ
User avatar
Joined: 11 Aug 2007
Posts: 16949
Lоcаtion: Псков
Age: 45
Name: Сергей
Загружайте картинки на форум, please...
Upload images to forum please...

_________________
THRASH 'EM ALL


Top
 Profile E-mail  
 
 
PostPosted: 30 Aug 2011 
хард н хэвщик (support team)
User avatar
Joined: 02 Jun 2008
Posts: 16881
Lоcаtion: Н.Новгород
Age: 32
Name: Артем
ну он не только у спидика, и у меян наверное где-то валяется, поискать только надо :oops:


Top
 Profile  
 
 
PostPosted: 31 Aug 2011 
Хиппей (support team)
User avatar
Joined: 30 Jul 2007
Posts: 112855
Lоcаtion: Киев (Kyiv, UA)
Age: 45
Name: Andrey
McKagan wrote:
поискать только надо :oops:

А попробуй, плиз :oops:

_________________


Top
 Profile E-mail  
 
 
PostPosted: 24 Oct 2011 
Я набрал 1000 сообщений!
Joined: 12 Dec 2008
Posts: 1062
Lоcаtion: BULGARIA
Age: 40
Name: DIMITЪR
Товарщи, почему забьiли ету тему? :vic:


Top
 Profile  
 
 
PostPosted: 24 Oct 2011 
Хиппей (support team)
User avatar
Joined: 30 Jul 2007
Posts: 112855
Lоcаtion: Киев (Kyiv, UA)
Age: 45
Name: Andrey
Не-а, не забыли.
Вот здесь http://losi.moole.ru/56170-drive-charac ... -1988.html был.
Проси Игоря (Гошу) или кого-то из наших (а их там немало спасибкнуло :crazy: ) перезалить архив :cow:

_________________


Top
 Profile E-mail  
 
 
PostPosted: 27 Oct 2011 
Я набрал 1000 сообщений!
Joined: 12 Dec 2008
Posts: 1062
Lоcаtion: BULGARIA
Age: 40
Name: DIMITЪR
Твой друг Гошу писмо написал ,но ответ никакой, пойщите вьй уважаемьй ,для вас можеть обновить ссьiлку :vic:


Top
 Profile  
 
 
PostPosted: 27 Oct 2011 
Хиппей (support team)
User avatar
Joined: 30 Jul 2007
Posts: 112855
Lоcаtion: Киев (Kyiv, UA)
Age: 45
Name: Andrey
Ну ты когда написал? Пару дней назад?
Может еще он и не читал.

Сейчас отпишу ему тоже. Он мне не друг и я ему тож. Просто знакомые по Сети.

_________________


Top
 Profile E-mail  
 
 
PostPosted: 27 Oct 2011 
Хиппей (support team)
User avatar
Joined: 30 Jul 2007
Posts: 112855
Lоcаtion: Киев (Kyiv, UA)
Age: 45
Name: Andrey
Димитар, альбом неправильно рипнут:

Quote:
Read mode : Burst
Read offset correction : 0

Или и такой пойдет?

_________________


Top
 Profile E-mail  
 
 
PostPosted: 28 Oct 2011 
Old Time Rock`n`Roll
User avatar
Joined: 23 Jun 2008
Posts: 3429
Lоcаtion: г.Ульяновск
Age: 40
Name: Константин
Лосслесс:
Drive-88 (Megaupload)

Log
Exact Audio Copy V0.99 prebeta 4 from 23. January 2008

EAC extraction logfile from 6. August 2009, 13:06

Drive / Characters In Time

Used drive : PIONEER DVD-RW DVR-212 Adapter: 3 ID: 0

Read mode : Burst

Read offset correction : 0
Overread into Lead-In and Lead-Out : No
Fill up missing offset samples with silence : Yes
Delete leading and trailing silent blocks : No
Null samples used in CRC calculations : No
Used interface : Installed external ASPI interface

Used output format : Internal WAV Routines
Sample format : 44.100 Hz; 16 Bit; Stereo


TOC of the extracted CD

Track | Start | Length | Start sector | End sector
---------------------------------------------------------
1 | 0:00.00 | 4:22.50 | 0 | 19699
2 | 4:22.50 | 4:55.27 | 19700 | 41851
3 | 9:18.02 | 4:26.55 | 41852 | 61856
4 | 13:44.57 | 3:52.25 | 61857 | 79281
5 | 17:37.07 | 3:56.70 | 79282 | 97051
6 | 21:34.02 | 5:27.60 | 97052 | 121636
7 | 27:01.62 | 4:58.38 | 121637 | 144024
8 | 32:00.25 | 6:31.52 | 144025 | 173401
9 | 38:32.02 | 4:40.48 | 173402 | 194449
10 | 43:12.50 | 4:55.12 | 194450 | 216586


Range status and errors

Selected range

Filename D:\Drive lossless\Drive - Characters In Time.wav

Timing problem 0:00:27

Peak level 97.6 %
Copy CRC 26AA414D
Copy finished

No errors occurred

End of status report


Давний рип от пользователя Gosha


Top
 Profile  
 
 
PostPosted: 28 Oct 2011 
Хиппей (support team)
User avatar
Joined: 30 Jul 2007
Posts: 112855
Lоcаtion: Киев (Kyiv, UA)
Age: 45
Name: Andrey
Костя, спасибо :thanx:

mirror: MultiUp l Narod

_________________


Top
 Profile E-mail  
 
 
PostPosted: 28 Oct 2011 
Я набрал 1000 сообщений!
Joined: 24 Oct 2009
Posts: 2213
Lоcаtion: Оренбург
Age: 55
Name: Юра
:thanx:

_________________
:dash: I am happy!


Top
 Profile E-mail  
 
 
PostPosted: 28 Oct 2011 
Хиппей (support team)
User avatar
Joined: 30 Jul 2007
Posts: 112855
Lоcаtion: Киев (Kyiv, UA)
Age: 45
Name: Andrey
Так... :fingal:
Димитар, ты точно Гошу просил перезалить альбом??? :esel:

В общем, новая ссылка находится в доке. Настройки EAC теперь правильные :dance:

За лося говорим спасибо Дарко :thanx:

_________________


Top
 Profile E-mail  
 
 
PostPosted: 29 Oct 2011 
Я набрал 1000 сообщений!
Joined: 12 Dec 2008
Posts: 1062
Lоcаtion: BULGARIA
Age: 40
Name: DIMITЪR
Scatterbrain wrote:
Так... :fingal:
Димитар, ты точно Гошу просил перезалить альбом??? :esel:



Да, но ответ никакой.


Top
 Profile  
 
 
PostPosted: 29 Oct 2011 
Хиппей (support team)
User avatar
Joined: 30 Jul 2007
Posts: 112855
Lоcаtion: Киев (Kyiv, UA)
Age: 45
Name: Andrey
То есть, он вообще не ответил?
Пожалуйста, сделай мне скрин своего сообщения с moole.ru , которое ты отправлял Gosha.


Image Image

Ссылка на правильный рип: M-Cloud l Narod l Yadi

log
Exact Audio Copy V0.99 prebeta 4 from 23. January 2008

EAC extraction logfile from 6. August 2009, 13:06

Drive / Characters In Time

Used drive : PIONEER DVD-RW DVR-212 Adapter: 3 ID: 0

Read mode : Burst

Read offset correction : 0
Overread into Lead-In and Lead-Out : No
Fill up missing offset samples with silence : Yes
Delete leading and trailing silent blocks : No
Null samples used in CRC calculations : No
Used interface : Installed external ASPI interface

Used output format : Internal WAV Routines
Sample format : 44.100 Hz; 16 Bit; Stereo


TOC of the extracted CD

Track | Start | Length | Start sector | End sector
---------------------------------------------------------
1 | 0:00.00 | 4:22.50 | 0 | 19699
2 | 4:22.50 | 4:55.27 | 19700 | 41851
3 | 9:18.02 | 4:26.55 | 41852 | 61856
4 | 13:44.57 | 3:52.25 | 61857 | 79281
5 | 17:37.07 | 3:56.70 | 79282 | 97051
6 | 21:34.02 | 5:27.60 | 97052 | 121636
7 | 27:01.62 | 4:58.38 | 121637 | 144024
8 | 32:00.25 | 6:31.52 | 144025 | 173401
9 | 38:32.02 | 4:40.48 | 173402 | 194449
10 | 43:12.50 | 4:55.12 | 194450 | 216586


Range status and errors

Selected range

Filename D:\Drive lossless\Drive - Characters In Time.wav

Timing problem 0:00:27

Peak level 97.6 %
Copy CRC 26AA414D
Copy finished

No errors occurred

End of status report

cue
REM DISCID 820B470A
REM COMMENT "ExactAudioCopy v0.99pb4"
PERFORMER "Drive"
TITLE "Characters In Time"
FILE "Drive - Characters In Time.wav" WAVE
TRACK 01 AUDIO
TITLE "(New Reign) The Phoenix"
PERFORMER "Drive"
INDEX 01 00:00:00
TRACK 02 AUDIO
TITLE "Kamikaze"
PERFORMER "Drive"
INDEX 00 04:22:42
INDEX 01 04:22:50
TRACK 03 AUDIO
TITLE "Stormtrooper"
PERFORMER "Drive"
INDEX 00 09:16:51
INDEX 01 09:18:02
TRACK 04 AUDIO
TITLE "Heroes Road"
PERFORMER "Drive"
INDEX 00 13:43:10
INDEX 01 13:44:57
TRACK 05 AUDIO
TITLE "Snake Eyes"
PERFORMER "Drive"
INDEX 00 17:35:33
INDEX 01 17:37:07
TRACK 06 AUDIO
TITLE "Eternal Mercenary"
PERFORMER "Drive"
INDEX 00 21:31:73
INDEX 01 21:34:02
TRACK 07 AUDIO
TITLE "The Entity"
PERFORMER "Drive"
INDEX 00 27:00:20
INDEX 01 27:01:62
TRACK 08 AUDIO
TITLE "Sinister Minister"
PERFORMER "Drive"
INDEX 00 31:58:12
INDEX 01 32:00:25
TRACK 09 AUDIO
TITLE "Forever And A Day"
PERFORMER "Drive"
INDEX 00 38:31:15
INDEX 01 38:32:02
TRACK 10 AUDIO
TITLE "I Need The Nights"
PERFORMER "Drive"
INDEX 00 43:10:34
INDEX 01 43:12:50



Запрос закрыт.

_________________


Top
 Profile E-mail  
 
 
PostPosted: 29 Oct 2011 
Пионэръ
User avatar
Joined: 16 Apr 2009
Posts: 14
Age: 52
Name: Игорь
Scatterbrain wrote:
То есть, он вообще не ответил?
Пожалуйста, сделай мне скрин своего сообщения с moole.ru , которое ты отправлял Gosha.


Андрей, просил он меня, просил. Вот, в результате этой просьбы правильный рип и появился.


Top
 Profile  
 
 
PostPosted: 29 Oct 2011 
Хиппей (support team)
User avatar
Joined: 30 Jul 2007
Posts: 112855
Lоcаtion: Киев (Kyiv, UA)
Age: 45
Name: Andrey
gosha7766 wrote:
просил он меня, просил

Фуф, ну и отлично :dance:
Спасибо всем за участие :thanx: :true: :true: :true:


Пардон за недоверию Димитару, но проверить нужно было :pardon:

_________________


Top
 Profile E-mail  
 
 
PostPosted: 31 Oct 2011 
Пионэръ
Joined: 12 Aug 2009
Posts: 20
Name: Явор
Scatterbrain wrote:
За лося говорим спасибо Дарко :thanx:

Это, вроде, наш коллега glory11 Я не знаю почему он такой скромный :losik:


Top
 Profile E-mail  
 
 
PostPosted: 31 Oct 2011 
Хиппей (support team)
User avatar
Joined: 30 Jul 2007
Posts: 112855
Lоcаtion: Киев (Kyiv, UA)
Age: 45
Name: Andrey
Хм, если это и он, то понятна его "скромность" - здесь же никто не запрещал лосей распостранять :crazy:

_________________


Top
 Profile E-mail  
 
Display posts from previous:  Sort by  
Post new topic Reply to topic  [ 21 posts ]  Go to page 1, 2  Next

All times are UTC + 3 hours


Who is online

Users browsing this forum: No registered users and 2 guests


You cannot post new topics in this forum
You cannot reply to topics in this forum
You cannot edit your posts in this forum
You cannot delete your posts in this forum
You cannot post attachments in this forum

Search for:
Яндекс.Метрика
Powered by phpBB © 2000, 2002, 2005, 2007 phpBB Group