\m/ 80's metal \m/

Информационно-аналитический форум "80 см пыли" (In Search We Trust) "У нас никто никуда не спешит"
Me For You - http://me-4u.com
It is currently 27 May 2019

All times are UTC + 3 hours

Spoiler
Chat - temporary registration for foreign users (please leave your application here)







Post new topic Reply to topic  [ 31 posts ]  Go to page 1, 2  Next
Author Message
 
PostPosted: 26 Aug 2011 
парень в очёчкXаX!
User avatar
Joined: 15 Aug 2007
Posts: 2353
Lоcаtion: UK'раина, г. ЛондАн Би-Би-Си
Age: 48
Name: Сергей
Ещё до недавна их дебютник лично для меня считался MEGA RARE!
к сож. лучшего звука в цифровом формате в природе НЕ СУЩЕСТВУЕТ!
для коллекционеров и тоЧЧка!
Image
Страна: USA
Стиль: Hard Rock
Формат: WAV+CUE+LOG
Размер: 397mb (+Repair info)
Источник: My CDDA collection

Line-up:
Henrik Ostengaard - vocals, guitar
Paul Anthony "Buck Dulle" - drums
Jimmy Chartley - bass

Tracklisting:
1. You Can't Take Me
2. Crazy, Crazy
3. Get Back
4. She's A Rocker
5. Get Off
6. Wild Child
7. Told You So
8. Get Ready
9. On Your Back
10. I Love You
11. And I Do *bonus track

Bonus Content: Dirty Looks EP '84
12. Hold Tight
13. She's On Top
14. My Time
15. Tell Me

Total playing time: 53:32

Produced by Dirty Looks
Mixed: Carl Deffler
Mastering: Steve Samson

1984 Dirty Looks
© 2010 FnA Records, LLC.


LitEbitE dЭпоZZиТТЭ
Image

log
Exact Audio Copy V1.0 beta 1 from 15. November 2010

Отчёт EAC об извлечении, выполненном 29. мая 2012, 19:18

Dirty Looks / Dirty Looks

Дисковод: TEAC CD-W524E Adapter: 1 ID: 0

Режим чтения : Достоверность
Использование точного потока : Да
Отключение кэша аудио : Да
Использование указателей C2 : Нет

Коррекция смещения при чтении : 686
Способность читать области Lead-in и Lead-out : Нет
Заполнение пропущенных сэмплов тишиной : Да
Удаление блоков с тишиной в начале и конце : Нет
При вычислениях CRC использовались нулевые сэмплы : Нет
Интерфейс : Встроенный Win32-интерфейс для Win NT/2000

Выходной формат : Внутренние WAV-операции
Формат сэмплов : 44.100 Гц; 16 бит; стерео


TOC извлечённого CD

Трек | Старт | Длительность | Начальный сектор | Конечный сектор
---------------------------------------------------------------------
1 | 0:00.00 | 2:47.45 | 0 | 12569
2 | 2:47.45 | 3:38.01 | 12570 | 28920
3 | 6:25.46 | 2:37.66 | 28921 | 40761
4 | 9:03.37 | 3:10.31 | 40762 | 55042
5 | 12:13.68 | 3:20.37 | 55043 | 70079
6 | 15:34.30 | 2:37.04 | 70080 | 81858
7 | 18:11.34 | 3:17.21 | 81859 | 96654
8 | 21:28.55 | 3:44.51 | 96655 | 113505
9 | 25:13.31 | 3:41.19 | 113506 | 130099
10 | 28:54.50 | 3:06.59 | 130100 | 144108
11 | 32:01.34 | 3:41.23 | 144109 | 160706
12 | 35:42.57 | 4:19.55 | 160707 | 180186
13 | 40:02.37 | 4:10.54 | 180187 | 198990
14 | 44:13.16 | 5:28.03 | 198991 | 223593
15 | 49:41.19 | 3:49.02 | 223594 | 240770


Характеристики диапазона извлечения и сообщения об ошибках

Выбранный диапазон

Имя файла D:\Music\Сегодня+\CoverZ\UPLOADz\Dlooks-84\Dirty Looks - Dirty Looks.wav

Пиковый уровень 100.0 %
Скорость извлечения 0.3 X
Качество диапазона 100.0 %
CRC копии 4DDCAB3C
Копирование... OK

Ошибок не произошло


AccurateRip: сводка

Трек 1 отсутствует в базе данных
Трек 2 отсутствует в базе данных
Трек 3 отсутствует в базе данных
Трек 4 отсутствует в базе данных
Трек 5 отсутствует в базе данных
Трек 6 отсутствует в базе данных
Трек 7 отсутствует в базе данных
Трек 8 отсутствует в базе данных
Трек 9 отсутствует в базе данных
Трек 10 отсутствует в базе данных
Трек 11 отсутствует в базе данных
Трек 12 отсутствует в базе данных
Трек 13 отсутствует в базе данных
Трек 14 отсутствует в базе данных
Трек 15 отсутствует в базе данных

Ни одного трека нет в базе AccurateRip

Конец отчёта

cue
REM GENRE "Hard Rock"
REM DATE 1984
REM DISCID D50C8A0F
REM COMMENT "ExactAudioCopy v1.0b1"
PERFORMER "Dirty Looks"
TITLE "Dirty Looks"
FILE "Dirty Looks - Dirty Looks.wav" WAVE
TRACK 01 AUDIO
TITLE "You Can't Take Me"
PERFORMER "Dirty Looks"
FLAGS DCP
INDEX 01 00:00:00
TRACK 02 AUDIO
TITLE "Crazy, Crazy"
PERFORMER "Dirty Looks"
FLAGS DCP
INDEX 00 02:45:45
INDEX 01 02:47:45
TRACK 03 AUDIO
TITLE "Get Back"
PERFORMER "Dirty Looks"
FLAGS DCP
INDEX 00 06:23:46
INDEX 01 06:25:46
TRACK 04 AUDIO
TITLE "She's A Rocker"
PERFORMER "Dirty Looks"
FLAGS DCP
INDEX 00 09:01:37
INDEX 01 09:03:37
TRACK 05 AUDIO
TITLE "Get Off"
PERFORMER "Dirty Looks"
FLAGS DCP
INDEX 00 12:11:68
INDEX 01 12:13:68
TRACK 06 AUDIO
TITLE "Wild Child"
PERFORMER "Dirty Looks"
FLAGS DCP
INDEX 00 15:32:30
INDEX 01 15:34:30
TRACK 07 AUDIO
TITLE "Told You So"
PERFORMER "Dirty Looks"
FLAGS DCP
INDEX 00 18:09:34
INDEX 01 18:11:34
TRACK 08 AUDIO
TITLE "Get Ready"
PERFORMER "Dirty Looks"
FLAGS DCP
INDEX 00 21:26:55
INDEX 01 21:28:55
TRACK 09 AUDIO
TITLE "On Your Back"
PERFORMER "Dirty Looks"
FLAGS DCP
INDEX 00 25:11:31
INDEX 01 25:13:31
TRACK 10 AUDIO
TITLE "I Love You"
PERFORMER "Dirty Looks"
FLAGS DCP
INDEX 00 28:52:50
INDEX 01 28:54:50
TRACK 11 AUDIO
TITLE "And I Do"
PERFORMER "Dirty Looks"
FLAGS DCP
INDEX 00 31:59:34
INDEX 01 32:01:34
TRACK 12 AUDIO
TITLE "Hold Tight"
PERFORMER "Dirty Looks"
FLAGS DCP
INDEX 00 35:40:57
INDEX 01 35:42:57
TRACK 13 AUDIO
TITLE "She's on Top"
PERFORMER "Dirty Looks"
FLAGS DCP
INDEX 00 40:00:37
INDEX 01 40:02:37
TRACK 14 AUDIO
TITLE "My Time"
PERFORMER "Dirty Looks"
FLAGS DCP
INDEX 00 44:11:16
INDEX 01 44:13:16
TRACK 15 AUDIO
TITLE "Tell Me"
PERFORMER "Dirty Looks"
FLAGS DCP
INDEX 00 49:39:19
INDEX 01 49:41:19


Last edited by attax on 29 May 2012, edited 3 times in total.

Top
 Profile  
 
 
PostPosted: 26 Aug 2011 
Хиппей (support team)
User avatar
Joined: 30 Jul 2007
Posts: 112855
Lоcаtion: Киев (Kyiv, UA)
Age: 45
Name: Andrey
:thanx:

А тута http://rutracker.org/forum/viewtopic.php?t=3379565 бонусов больше :oops:

_________________


Top
 Profile E-mail  
 
 
PostPosted: 27 Aug 2011 
парень в очёчкXаX!
User avatar
Joined: 15 Aug 2007
Posts: 2353
Lоcаtion: UK'раина, г. ЛондАн Би-Би-Си
Age: 48
Name: Сергей
хм, на шюТТку не похоже )))))АндруХа-Ха, а ну быстро выдыхай.... :nunu: :nunu: :nunu: :au: :au: :au: :au: :au: :au:


Top
 Profile  
 
 
PostPosted: 27 Aug 2011 
:true: great thanks!! :meloman:


Top
  
 
 
PostPosted: 27 Aug 2011 
Хиппей (support team)
User avatar
Joined: 30 Jul 2007
Posts: 112855
Lоcаtion: Киев (Kyiv, UA)
Age: 45
Name: Andrey
attax wrote:
хм, на шюТТку не похоже )))))

А это и не шутка :pardon:

Имеется винил-рип этого альбома. Попробую сравнить все три варианта. Но, явно это будет не скоро :fingal:

_________________


Top
 Profile E-mail  
 
 
PostPosted: 27 Aug 2011 
парень в очёчкXаX!
User avatar
Joined: 15 Aug 2007
Posts: 2353
Lоcаtion: UK'раина, г. ЛондАн Би-Би-Си
Age: 48
Name: Сергей
Scatterbrain wrote:
А тута http://rutracker.org/forum/viewtopic.php?t=3379565 бонусов больше :oops:
:dash: :dash: :dash: :starz: :dash: :dash: :dash:
Андруха!!! ты чего??? :nunu: :nunu: :nunu:
оставь покуритЪ :losik: :losik: :losik:


Top
 Profile  
 
 
PostPosted: 27 Aug 2011 
Хиппей (support team)
User avatar
Joined: 30 Jul 2007
Posts: 112855
Lоcаtion: Киев (Kyiv, UA)
Age: 45
Name: Andrey
Серёг, шо не так? :crazy:
Там бутлежное издание? Или ты про отсутствие миника от 84-го года? Или звук фуфло? :vic:

_________________


Top
 Profile E-mail  
 
 
PostPosted: 27 Aug 2011 
парень в очёчкXаX!
User avatar
Joined: 15 Aug 2007
Posts: 2353
Lоcаtion: UK'раина, г. ЛондАн Би-Би-Си
Age: 48
Name: Сергей
Андруха, я про Dirty Looks, Henrik'a Ostengaard'a (r.i.p.) и Хард Рок!!!

царя на мыЛЛо,,,,,,ааааааааааааааа :esel: :esel: :esel:


Top
 Profile  
 
 
PostPosted: 27 Aug 2011 
Хиппей (support team)
User avatar
Joined: 30 Jul 2007
Posts: 112855
Lоcаtion: Киев (Kyiv, UA)
Age: 45
Name: Andrey
АААААААААААААаааааааааааааАААААААААААААААА :dash: :dash: :dash: :dash: :dash:
Я спутал группы :ura: :crazy: :nunu: :esel: :dash: :pardon:
И лишь спустя два часа понял это :pardon:

_________________


Top
 Profile E-mail  
 
 
PostPosted: 27 Aug 2011 
парень в очёчкXаX!
User avatar
Joined: 15 Aug 2007
Posts: 2353
Lоcаtion: UK'раина, г. ЛондАн Би-Би-Си
Age: 48
Name: Сергей
енто фсё из-за беспробуДДных пЪянок, курева и женСЧин! :nodrugs:
Андруха, заканчивай с этим, до добра это не приведётЪ, лучше кинь все сиЛЛы на дорогуЩЩия и РАРитетныЯ РЫПЫ от тов. Спидика! :str:


Top
 Profile  
 
 
PostPosted: 27 Aug 2011 
Хиппей (support team)
User avatar
Joined: 30 Jul 2007
Posts: 112855
Lоcаtion: Киев (Kyiv, UA)
Age: 45
Name: Andrey
Та нафек. Рипы рипами, девки с куревом, но я просто упарился в этих Дёрти Луксах. Мне хардкоровый вообще ближе, а эти два хард-роковых вообще еще и не слушал =))

Серёж, еще раз спасибо за раритет! :thanx:
Вот точно скачаю когда-то и даже запишу на болванку образом :dance: и сканов туда вставлю в виде картинок.

_________________


Top
 Profile E-mail  
 
 
PostPosted: 25 Sep 2011 
А может смените мне статус?..
User avatar
Joined: 08 Nov 2007
Posts: 634
Lоcаtion: Crimea, UA
Age: 32
Name: Анатолий
Спасиба!! :true:


Top
 Profile  
 
 
PostPosted: 29 May 2012 
Зарегился вот...
Joined: 05 Oct 2011
Posts: 5
Lоcаtion: Краснодар
Name: Семен
Ссылка умерла...перезалить кто-нибудь не может?


Top
 Profile E-mail  
 
 
PostPosted: 29 May 2012 
Хиппей (support team)
User avatar
Joined: 30 Jul 2007
Posts: 112855
Lоcаtion: Киев (Kyiv, UA)
Age: 45
Name: Andrey
Quote:
Закончился срок хранения файла. Файл удален с сервиса.

Ай-ай-яй :fingal:

Сейчас гляну, скачивал ли я...

_________________


Top
 Profile E-mail  
 
 
PostPosted: 29 May 2012 
Хиппей (support team)
User avatar
Joined: 30 Jul 2007
Posts: 112855
Lоcаtion: Киев (Kyiv, UA)
Age: 45
Name: Andrey
Не качал скорее всего йа :fingal:
Ждём остальных, авось кто утянуть успел.

_________________


Top
 Profile E-mail  
 
 
PostPosted: 29 May 2012 
парень в очёчкXаX!
User avatar
Joined: 15 Aug 2007
Posts: 2353
Lоcаtion: UK'раина, г. ЛондАн Би-Би-Си
Age: 48
Name: Сергей
я скаЧЧал attax'a, ща попробую перезалить...

пы/сы: не подскажитя, какой обменник самый присамый платный, где мона побольше бобла за это срубить...ааа,,,,,? :nunu:


Top
 Profile  
 
 
PostPosted: 29 May 2012 
Хиппей (support team)
User avatar
Joined: 30 Jul 2007
Posts: 112855
Lоcаtion: Киев (Kyiv, UA)
Age: 45
Name: Andrey
Летитбит и Депозит :al:

_________________


Top
 Profile E-mail  
 
 
PostPosted: 29 May 2012 
парень в очёчкXаX!
User avatar
Joined: 15 Aug 2007
Posts: 2353
Lоcаtion: UK'раина, г. ЛондАн Би-Би-Си
Age: 48
Name: Сергей
ссылЪ обновлена и никаких зеркаЛЛ, миророФФ и что самое главное - никаких расшарок на др. ресурсах.
все, кто скачал и непоблагоДДарил уходят в БАН пожизненно!
:au: :str: :au: :ula: :nunu: :ula:


Top
 Profile  
 
 
PostPosted: 30 May 2012 
Хиппей (support team)
User avatar
Joined: 30 Jul 2007
Posts: 112855
Lоcаtion: Киев (Kyiv, UA)
Age: 45
Name: Andrey
Забрал и никаму ниатдам :karl: :drink:

mirror: MultiUp l Narod

_________________


Top
 Profile E-mail  
 
 
PostPosted: 31 May 2012 
Хиппей (support team)
User avatar
Joined: 30 Jul 2007
Posts: 112855
Lоcаtion: Киев (Kyiv, UA)
Age: 45
Name: Andrey
:umnik: Ступенчатая сидиэрочка была? :oops:

Лiзла по драбинi та й впала с лестницы (с) :scratch:

spectrum
Image

_________________


Top
 Profile E-mail  
 
Display posts from previous:  Sort by  
Post new topic Reply to topic  [ 31 posts ]  Go to page 1, 2  Next

All times are UTC + 3 hours


Who is online

Users browsing this forum: No registered users and 3 guests


You cannot post new topics in this forum
You cannot reply to topics in this forum
You cannot edit your posts in this forum
You cannot delete your posts in this forum
You cannot post attachments in this forum

Search for:
Яндекс.Метрика
Powered by phpBB © 2000, 2002, 2005, 2007 phpBB Group