\m/ 80's metal \m/

Информационно-аналитический форум "80 см пыли" (In Search We Trust) "У нас никто никуда не спешит"
Me For You - http://me-4u.com
It is currently 23 May 2019

All times are UTC + 3 hours

Spoiler
Chat - temporary registration for foreign users (please leave your application here)







Post new topic Reply to topic  [ 3 posts ] 
Author Message
 
PostPosted: 25 Aug 2011 
Работнечег
User avatar
Joined: 28 Aug 2007
Posts: 5838
Lоcаtion: г. Москва
Age: 30
Name: Дима
Image

Band: Dark Fortress
Album: Light & Darkness
Year: 2000
Label: Self-Released
Genre: Heavy Metal
Coutry: Germany
Format: Flac + Log + Cue + Covers / MP3@320 + Covers
Size: 424 Mb/ 147 Mb

Line-Up:
Marcus Buhl - Drums
Matthias Bludau - Guitars (Dragonsfire)
Thorsten Brand - Guitars (Dragonsfire)
Torsten Thassilo Herbert - Vocals, Bass (Dragonsfire)


Image

Tracklist:
1. March Of The Damned 01:51
2. Fear 03:52
3. Isolation 06:49
4. Tell Me Why 05:24
5. Monster 04:40
6. Lay Down in Hell 05:35
7. No Flowers on Your Grave 05:25
8. Last Day on Earth 04:33
9. Was Du Willst 05:06
10. Frodo (Lord Of The Rings) 10:12
11. Back from Hell 06:02
12. Light of Salvation 01:15

LOG
Exact Audio Copy V0.99 prebeta 5 from 4. May 2009

EAC extraction logfile from 18. August 2011, 23:19

Dark Fortress / Light & Darkness

Used drive : PIONEER DVD-RW DVR-116D Adapter: 0 ID: 0

Read mode : Secure
Utilize accurate stream : Yes
Defeat audio cache : Yes
Make use of C2 pointers : No

Read offset correction : 96
Overread into Lead-In and Lead-Out : No
Fill up missing offset samples with silence : Yes
Delete leading and trailing silent blocks : No
Null samples used in CRC calculations : Yes
Used interface : Native Win32 interface for Win NT & 2000

Used output format : User Defined Encoder
Selected bitrate : 32 kBit/s
Quality : High
Add ID3 tag : No
Command line compressor : C:\Program Files\Exact Audio Copy\Flac\flac.exe
Additional command line options : -6 -V %s


TOC of the extracted CD

Track | Start | Length | Start sector | End sector
---------------------------------------------------------
1 | 0:00.00 | 1:51.20 | 0 | 8344
2 | 1:51.20 | 3:51.59 | 8345 | 25728
3 | 5:43.04 | 6:49.21 | 25729 | 56424
4 | 12:32.25 | 5:24.27 | 56425 | 80751
5 | 17:56.52 | 4:40.09 | 80752 | 101760
6 | 22:36.61 | 5:34.59 | 101761 | 126869
7 | 28:11.45 | 5:25.27 | 126870 | 151271
8 | 33:36.72 | 4:32.73 | 151272 | 171744
9 | 38:09.70 | 5:06.01 | 171745 | 194695
10 | 43:15.71 | 10:12.24 | 194696 | 240619
11 | 53:28.20 | 6:02.24 | 240620 | 267793
12 | 59:30.44 | 1:15.21 | 267794 | 273439


Range status and errors

Selected range

Filename D:\Музыка\Lossless\Dark Fortress - Light & Darkness\Dark Fortress - Light & Darkness.wav

Peak level 98.8 %
Range quality 100.0 %
Copy CRC 60AE1CE9
Copy OK

No errors occurred


AccurateRip summary

Track 1 not present in database
Track 2 not present in database
Track 3 not present in database
Track 4 not present in database
Track 5 not present in database
Track 6 not present in database
Track 7 not present in database
Track 8 not present in database
Track 9 not present in database
Track 10 not present in database
Track 11 not present in database
Track 12 not present in database

None of the tracks are present in the AccurateRip database

End of status report

CUE
REM GENRE "Heavy Metal"
REM DATE 2000
REM DISCID 9E0E3D0C
REM COMMENT "ExactAudioCopy v0.99pb5"
PERFORMER "Dark Fortress"
TITLE "Light & Darkness"
FILE "Dark Fortress - Light & Darkness.flac" WAVE
TRACK 01 AUDIO
TITLE "March Of The Damned"
PERFORMER "Dark Fortress"
INDEX 01 00:00:00
TRACK 02 AUDIO
TITLE "Fear"
PERFORMER "Dark Fortress"
INDEX 01 01:51:20
TRACK 03 AUDIO
TITLE "Isolation"
PERFORMER "Dark Fortress"
INDEX 00 05:41:04
INDEX 01 05:43:04
TRACK 04 AUDIO
TITLE "Tell Me Why"
PERFORMER "Dark Fortress"
INDEX 00 12:30:25
INDEX 01 12:32:25
TRACK 05 AUDIO
TITLE "Monster"
PERFORMER "Dark Fortress"
INDEX 00 17:54:52
INDEX 01 17:56:52
TRACK 06 AUDIO
TITLE "Lay Down In Hell"
PERFORMER "Dark Fortress"
INDEX 00 22:34:61
INDEX 01 22:36:61
TRACK 07 AUDIO
TITLE "No Flowers On Your Grave"
PERFORMER "Dark Fortress"
INDEX 00 28:09:45
INDEX 01 28:11:45
TRACK 08 AUDIO
TITLE "Last Day On Earth"
PERFORMER "Dark Fortress"
INDEX 00 33:34:72
INDEX 01 33:36:72
TRACK 09 AUDIO
TITLE "Was Du Willst"
PERFORMER "Dark Fortress"
INDEX 00 38:07:70
INDEX 01 38:09:70
TRACK 10 AUDIO
TITLE "Frodo (Lord Of The Rings)"
PERFORMER "Dark Fortress"
INDEX 00 43:13:71
INDEX 01 43:15:71
TRACK 11 AUDIO
TITLE "Back From Hell"
PERFORMER "Dark Fortress"
INDEX 00 53:26:20
INDEX 01 53:28:20
TRACK 12 AUDIO
TITLE "Light Of Salvation"
PERFORMER "Dark Fortress"
INDEX 01 59:30:44


FLAC
MP3@320kbps

Послушал раза 4 альбом, понравилось в итоге. По большей части неспешные по темпу композиции, вокал с хрипотцой. Этакий Xiron или Rebellion, токо замедленный. Из минусов, большая длительность, за один раз прослушать весь альбом сложнова-то. Вообщем все песни на уровне, что-то выделить сложно.
За предоставленный диск огромное спасибо Саше spryt777.
P.S. на архивах пропущена первая песня (интро) March Of The Damned, если кто-то в силах, можете исправить ;)


Top
 Profile E-mail  
 
 
PostPosted: 25 Aug 2011 
Прокъмитолист
User avatar
Joined: 12 Aug 2007
Posts: 6552
Lоcаtion: Санктъ-Петербуркъ
Age: 51
Name: Олекъ
спасибо, Дим! :thanx: ща поправим на архивах :umnik:

_________________
прокъметол - это музыко, от которово есть прок (ы)


Top
 Profile  
 
 
PostPosted: 25 Aug 2011 
Хиппей (support team)
User avatar
Joined: 30 Jul 2007
Posts: 112689
Lоcаtion: Киев (Kyiv, UA)
Age: 45
Name: Andrey
:thanx:
mirror: MultiUp l Narod

_________________


Top
 Profile E-mail  
 
Display posts from previous:  Sort by  
Post new topic Reply to topic  [ 3 posts ] 

All times are UTC + 3 hours


Who is online

Users browsing this forum: No registered users and 2 guests


You cannot post new topics in this forum
You cannot reply to topics in this forum
You cannot edit your posts in this forum
You cannot delete your posts in this forum
You cannot post attachments in this forum

Search for:
Яндекс.Метрика
Powered by phpBB © 2000, 2002, 2005, 2007 phpBB Group