\m/ 80's metal \m/

Информационно-аналитический форум "80 см пыли" (In Search We Trust) "У нас никто никуда не спешит"
Me For You - http://me-4u.com
It is currently 27 May 2019

All times are UTC + 3 hours

Spoiler
Chat - temporary registration for foreign users (please leave your application here)







Post new topic Reply to topic  [ 8 posts ] 
Author Message
 
PostPosted: 25 Aug 2011 
Работнечег
User avatar
Joined: 28 Aug 2007
Posts: 5838
Lоcаtion: г. Москва
Age: 30
Name: Дима
Image

Band: Douglas
Album: Mad
Year: 1991 (Reissue In 2006)
Label: Fresh Music
Genre: Hard 'N' Heavy
Coutry: Greece
Format: Flac + Log + Cue + Covers
Size: 233 Mb

Line-Up:
Cornelius (Klaus Luley) — Vocals (Craaft, Tokyo)
Tony J. Conta — Guitars
Alex Douglas — Bass
Eliot Douglas — Drums


Tracklist:
1. Mystery Woman 3:26
2. Mad 3:13
3. Up In The Sky 4:51
4. Never Look Back 5:01
5. Proud 3:15
6. Sweet Sin 3:44
7. Why 3:42
8. Sandy 3:45
9. Samurai 4:21

LOG
Exact Audio Copy V0.99 prebeta 5 from 4. May 2009

EAC extraction logfile from 16. August 2011, 13:17

Douglas / Mad

Used drive : PIONEER DVD-RW DVR-116D Adapter: 0 ID: 0

Read mode : Secure
Utilize accurate stream : Yes
Defeat audio cache : Yes
Make use of C2 pointers : No

Read offset correction : 96
Overread into Lead-In and Lead-Out : No
Fill up missing offset samples with silence : Yes
Delete leading and trailing silent blocks : No
Null samples used in CRC calculations : Yes
Used interface : Native Win32 interface for Win NT & 2000

Used output format : User Defined Encoder
Selected bitrate : 32 kBit/s
Quality : High
Add ID3 tag : No
Command line compressor : C:\Program Files\Exact Audio Copy\Flac\flac.exe
Additional command line options : -6 -V %s


TOC of the extracted CD

Track | Start | Length | Start sector | End sector
---------------------------------------------------------
1 | 0:00.00 | 3:29.45 | 0 | 15719
2 | 3:29.45 | 3:15.26 | 15720 | 30370
3 | 6:44.71 | 3:37.57 | 30371 | 46702
4 | 10:22.53 | 4:56.63 | 46703 | 68965
5 | 15:19.41 | 3:18.07 | 68966 | 83822
6 | 18:37.48 | 3:42.05 | 83823 | 100477
7 | 22:19.53 | 3:43.70 | 100478 | 117272
8 | 26:03.48 | 3:44.03 | 117273 | 134075
9 | 29:47.51 | 4:17.26 | 134076 | 153376


Range status and errors

Selected range

Filename D:\Музыка\Lossless\Douglas - Mad (1991)\Douglas - Mad.wav

Peak level 96.0 %
Range quality 100.0 %
Copy CRC 9F31E7B4
Copy OK

No errors occurred


AccurateRip summary

Track 1 accurately ripped (confidence 2) [BBEB600B]
Track 2 accurately ripped (confidence 2) [7F4BFF23]
Track 3 accurately ripped (confidence 2) [A09F0403]
Track 4 accurately ripped (confidence 2) [F947434C]
Track 5 accurately ripped (confidence 2) [FFBF52DF]
Track 6 accurately ripped (confidence 2) [3A3F13AD]
Track 7 accurately ripped (confidence 2) [65CF211D]
Track 8 accurately ripped (confidence 2) [B26C195D]
Track 9 accurately ripped (confidence 2) [BC4C7BD7]

All tracks accurately ripped

End of status report

CUE
REM GENRE Rock
REM DATE 1991
REM DISCID 6707FD09
REM COMMENT "ExactAudioCopy v0.99pb5"
PERFORMER "Douglas"
TITLE "Mad"
FILE "Douglas - Mad.flac" WAVE
TRACK 01 AUDIO
TITLE "Mystery Woman"
PERFORMER "Douglas"
FLAGS DCP
INDEX 01 00:00:00
TRACK 02 AUDIO
TITLE "Mad"
PERFORMER "Douglas"
FLAGS DCP
INDEX 01 03:29:45
TRACK 03 AUDIO
TITLE "Up In The Sky"
PERFORMER "Douglas"
FLAGS DCP
INDEX 01 06:44:71
TRACK 04 AUDIO
TITLE "Never Look Back"
PERFORMER "Douglas"
FLAGS DCP
INDEX 01 10:22:53
TRACK 05 AUDIO
TITLE "Proud"
PERFORMER "Douglas"
FLAGS DCP
INDEX 01 15:19:41
TRACK 06 AUDIO
TITLE "Sweet Sin"
PERFORMER "Douglas"
FLAGS DCP
INDEX 01 18:37:48
TRACK 07 AUDIO
TITLE "Why"
PERFORMER "Douglas"
FLAGS DCP
INDEX 01 22:19:53
TRACK 08 AUDIO
TITLE "Sandy"
PERFORMER "Douglas"
FLAGS DCP
INDEX 01 26:03:48
TRACK 09 AUDIO
TITLE "Samurai"
PERFORMER "Douglas"
FLAGS DCP
INDEX 01 29:47:51


Narod.Ru

За предоставленный диск огромное спасибо Юре uriyy. Со спектрами и звучанием тут все отлично, ну и музыка не подкачала.


Top
 Profile E-mail  
 
 
PostPosted: 25 Aug 2011 
Хиппей (support team)
User avatar
Joined: 30 Jul 2007
Posts: 112855
Lоcаtion: Киев (Kyiv, UA)
Age: 45
Name: Andrey
Юрке и Димке спасибке :thanx:
mirror: MultiUp l Narod

_________________


Top
 Profile E-mail  
 
 
PostPosted: 25 Aug 2011 
Я набрал 1000 сообщений!
Joined: 24 Oct 2009
Posts: 2213
Lоcаtion: Оренбург
Age: 55
Name: Юра
:oops: :kamrad:

_________________
:dash: I am happy!


Top
 Profile E-mail  
 
 
PostPosted: 25 Aug 2011 
спирт 100%
User avatar
Joined: 22 Sep 2008
Posts: 4416
Age: 47
Name: Саня
Ребята,Спасибо!!! :thanx: :true:


Top
 Profile  
 
 
PostPosted: 25 Aug 2011 
*** Умер ***
User avatar
Joined: 25 Apr 2009
Posts: 2188
Lоcаtion: Санкт-Петербург
Age: 33
Name: Кирилл
Отличный альбом.


Top
 Profile E-mail  
 
 
PostPosted: 25 Aug 2011 
Доктор энтомологии
User avatar
Joined: 22 Jan 2009
Posts: 9753
Lоcаtion: Даугавпилс
Age: 44
Name: Алексей
нада в мп3 скачать послухать если вещь стоящая :umnik:


Top
 Profile  
 
 
PostPosted: 26 Aug 2011 
дядя Миша
User avatar
Joined: 17 Oct 2008
Posts: 3123
Lоcаtion: USSR
Age: 56
Name: Khy
Спасибо! так держать!


Top
 Profile  
 
 
PostPosted: 27 Aug 2011 
Пионэръ
User avatar
Joined: 08 Nov 2010
Posts: 43
Lоcаtion: Россия
Name: Юрий
Спасибо! отличный, мелодичный альбом.


Top
 Profile E-mail  
 
Display posts from previous:  Sort by  
Post new topic Reply to topic  [ 8 posts ] 

All times are UTC + 3 hours


Who is online

Users browsing this forum: No registered users and 2 guests


You cannot post new topics in this forum
You cannot reply to topics in this forum
You cannot edit your posts in this forum
You cannot delete your posts in this forum
You cannot post attachments in this forum

Search for:
Яндекс.Метрика
Powered by phpBB © 2000, 2002, 2005, 2007 phpBB Group